<?xml version="1.0" standalone="no"?><!DOCTYPE svg PUBLIC "-//W3C//DTD SVG 1.1//EN" "http://www.w3.org/Graphics/SVG/1.1/DTD/svg11.dtd" ><svg xmlns="http://www.w3.org/2000/svg"><metadata></metadata><defs><font id="7.200;ULA ;Montserrat-ExtraLight" horiz-adv-x="1192"><font-face font-family="Montserrat ExtraLight" font-weight="275" font-stretch="normal" units-per-em="1000" panose-1="0 0 3 0 0 0 0 0 0 0" ascent="968" descent="-251" x-height="0" bbox="-87 -198 1130 871" underline-thickness="50" underline-position="-75" unicode-range="U+0020-2122" /><missing-glyph horiz-adv-x="587" d="M40 700 l507 0 l0 -700 l-507 0 l0 700 ZM467 70 l0 560 l-347 0 l0 -560 l347 0 Z" /><glyph glyph-name="space" unicode=" " d="" /><glyph glyph-name="exclam" unicode="!" d="M105 700 l37 0 l-6 -506 l-25 0 l-6 506 ZM123 -3 q-13 0 -22.5 9.5 q-9.5 9.5 -9.5 22.5 q0 14 9.5 23.5 q9.5 9.5 22.5 9.5 q14 0 23.5 -9.5 q9.5 -9.5 9.5 -23.5 q0 -13 -9.5 -22.5 q-9.5 -9.5 -23.5 -9.5 Z" /><glyph glyph-name="quotedbl" unicode="&quot;" d="M78 700 l33 0 l-3 -253 l-27 0 l-3 253 ZM233 700 l33 0 l-3 -253 l-27 0 l-3 253 Z" /><glyph glyph-name="numbersign" unicode="#" d="M501 467 l-28 -234 l147 0 l0 -28 l-151 0 l-25 -205 l-29 0 l25 205 l-231 0 l-25 -205 l-29 0 l25 205 l-146 0 l0 28 l150 0 l29 234 l-148 0 l0 28 l152 0 l25 205 l28 0 l-25 -205 l231 0 l25 205 l29 0 l-25 -205 l146 0 l0 -28 l-150 0 ZM472 467 l-231 0 l-28 -234 l231 0 l28 234 Z" /><glyph glyph-name="dollar" unicode="$" d="M549 175 q0 -48 -25 -88 q-25 -40 -77.5 -64.5 q-52.5 -24.5 -129.5 -26.5 l0 -116 l-26 0 l0 116 q-73 3 -136.5 29.5 q-63.5 26.5 -99.5 67.5 l18 24 q33 -38 92 -63 q59 -25 126 -28 l0 311 q-69 17 -113 35.5 q-44 18.5 -73.5 55 q-29.5 36.5 -29.5 96.5 q0 73 54.5 123.5 q54.5 50.5 161.5 55.5 l0 117 l26 0 l0 -116 q56 -1 110.5 -18 q54.5 -17 93.5 -46 l-15 -27 q-40 30 -90 45.5 q-50 15.5 -99 15.5 l0 -311 q76 -19 122 -36.5 q46 -17.5 78 -54 q32 -36.5 32 -97.5 ZM108 524 q0 -47 24 -76.5 q24 -29.5 62.5 -46.5 q38.5 -17 96.5 -31 l0 303 q-90 -5 -136.5 -46.5 q-46.5 -41.5 -46.5 -102.5 ZM317 26 q99 3 149 44 q50 41 50 104 q0 49 -26.5 79 q-26.5 30 -66.5 45.5 q-40 15.5 -106 32.5 l0 -305 Z" /><glyph glyph-name="percent" unicode="%" d="M199 327 q-67 0 -109 51.5 q-42 51.5 -42 136.5 q0 85 42 136.5 q42 51.5 109 51.5 q67 0 109 -51.5 q42 -51.5 42 -136.5 q0 -85 -42 -136.5 q-42 -51.5 -109 -51.5 ZM627 700 l31 0 l-478 -700 l-31 0 l478 700 ZM199 352 q56 0 90 44 q34 44 34 119 q0 75 -34 119 q-34 44 -90 44 q-55 0 -89.5 -44 q-34.5 -44 -34.5 -119 q0 -75 34.5 -119 q34.5 -44 89.5 -44 ZM608 -3 q-67 0 -109 51.5 q-42 51.5 -42 136.5 q0 85 42 136.5 q42 51.5 109 51.5 q67 0 109.5 -51.5 q42.5 -51.5 42.5 -136.5 q0 -85 -42.5 -136.5 q-42.5 -51.5 -109.5 -51.5 ZM608 22 q55 0 89.5 44 q34.5 44 34.5 119 q0 75 -34.5 119 q-34.5 44 -89.5 44 q-55 0 -89 -44 q-34 -44 -34 -119 q0 -75 34 -119 q34 -44 89 -44 Z" /><glyph glyph-name="ampersand" unicode="&amp;" d="M613 -10 l-105 113 q-82 -107 -232 -107 q-65 0 -115 21.5 q-50 21.5 -78.5 61 q-28.5 39.5 -28.5 90.5 q0 60 41.5 110.5 q41.5 50.5 144.5 111.5 l-5 6 q-52 55 -70.5 90.5 q-18.5 35.5 -18.5 77.5 q0 63 42.5 101 q42.5 38 114.5 38 q68 0 107.5 -34.5 q39.5 -34.5 39.5 -94.5 q0 -51 -35.5 -91.5 q-35.5 -40.5 -128.5 -97.5 l220 -236 q36 63 52 147 l28 -7 q-19 -96 -60 -161 l109 -117 l-22 -22 ZM178 565 q0 -35 17.5 -67 q17.5 -32 67.5 -87 l4 -4 q60 35 92.5 61.5 q32.5 26.5 46.5 51.5 q14 25 14 55 q0 46 -31 73.5 q-31 27.5 -86 27.5 q-58 0 -91.5 -30.5 q-33.5 -30.5 -33.5 -80.5 ZM277 24 q136 0 211 100 l-228 246 q-67 -40 -104.5 -71.5 q-37.5 -31.5 -53 -61.5 q-15.5 -30 -15.5 -66 q0 -66 52.5 -106.5 q52.5 -40.5 137.5 -40.5 Z" /><glyph glyph-name="quotesingle" unicode="&#39;" d="M78 700 l33 0 l-3 -253 l-27 0 l-3 253 Z" /><glyph glyph-name="parenleft" unicode="(" d="M231 -194 q-55 92 -84 211.5 q-29 119.5 -29 256.5 q0 138 29.5 258.5 q29.5 120.5 83.5 209.5 l31 0 q-111 -187 -111 -468 q0 -281 111 -468 l-31 0 Z" /><glyph glyph-name="parenright" unicode=")" d="M54 -194 q111 190 111 468 q0 278 -111 468 l31 0 q54 -89 83 -209.5 q29 -120.5 29 -258.5 q0 -138 -29 -257.5 q-29 -119.5 -83 -210.5 l-31 0 Z" /><glyph glyph-name="asterisk" unicode="*" d="M209 569 l131 -75 l-13 -23 l-132 76 l0 -151 l-25 0 l0 150 l-132 -75 l-12 23 l131 75 l-131 75 l12 23 l132 -76 l0 151 l25 0 l0 -151 l132 76 l13 -23 l-131 -75 Z" /><glyph glyph-name="plus" unicode="+" d="M490 335 l-193 0 l0 -188 l-31 0 l0 188 l-192 0 l0 29 l192 0 l0 189 l31 0 l0 -189 l193 0 l0 -29 Z" /><glyph glyph-name="comma" unicode="," d="M95 63 q14 0 23.5 -10 q9.5 -10 9.5 -23 q0 -9 -2.5 -19.5 q-2.5 -10.5 -3.5 -17.5 l-36 -134 l-26 0 l31 138 q-13 2 -21 11 q-8 9 -8 22 q0 14 9.5 23.5 q9.5 9.5 23.5 9.5 Z" /><glyph glyph-name="hyphen" unicode="-" d="M64 281 l253 0 l0 -30 l-253 0 l0 30 Z" /><glyph glyph-name="period" unicode="." d="M95 -3 q-14 0 -23.5 9.5 q-9.5 9.5 -9.5 23.5 q0 14 10 23.5 q10 9.5 23 9.5 q14 0 23.5 -9.5 q9.5 -9.5 9.5 -23.5 q0 -14 -9.5 -23.5 q-9.5 -9.5 -23.5 -9.5 Z" /><glyph glyph-name="slash" unicode="/" d="M309 842 l31 0 l-330 -942 l-31 0 l330 942 Z" /><glyph glyph-name="zero" unicode="0" d="M327 -4 q-79 0 -140.5 43.5 q-61.5 43.5 -95.5 124 q-34 80.5 -34 186.5 q0 106 34 186.5 q34 80.5 95.5 124 q61.5 43.5 140.5 43.5 q80 0 141 -43.5 q61 -43.5 95 -124 q34 -80.5 34 -186.5 q0 -106 -34 -186.5 q-34 -80.5 -95 -124 q-61 -43.5 -141 -43.5 ZM327 27 q70 0 124 39 q54 39 83.5 112 q29.5 73 29.5 172 q0 99 -29.5 172 q-29.5 73 -83.5 112 q-54 39 -124 39 q-70 0 -123.5 -39 q-53.5 -39 -83 -112 q-29.5 -73 -29.5 -172 q0 -99 29.5 -172 q29.5 -73 83 -112 q53.5 -39 123.5 -39 Z" /><glyph glyph-name="one" unicode="1" d="M219 700 l0 -700 l-33 0 l0 669 l-176 0 l0 31 l209 0 Z" /><glyph glyph-name="two" unicode="2" d="M516 31 l0 -31 l-474 0 l0 24 l300 302 q61 61 82.5 104.5 q21.5 43.5 21.5 89.5 q0 71 -48.5 112 q-48.5 41 -138.5 41 q-70 0 -121.5 -20.5 q-51.5 -20.5 -88.5 -63.5 l-23 22 q81 93 234 93 q101 0 160 -49 q59 -49 59 -133 q0 -53 -24 -102 q-24 -49 -89 -114 l-273 -275 l423 0 Z" /><glyph glyph-name="three" unicode="3" d="M251 391 q120 0 182.5 -53 q62.5 -53 62.5 -144 q0 -89 -61.5 -143.5 q-61.5 -54.5 -174.5 -54.5 q-77 0 -143 26.5 q-66 26.5 -100 70.5 l18 24 q32 -40 91.5 -65 q59.5 -25 132.5 -25 q99 0 151.5 45 q52.5 45 52.5 122 q0 79 -54 123 q-54 44 -162 44 l-39 0 l0 24 l218 284 l-386 0 l0 31 l430 0 l0 -24 l-219 -285 Z" /><glyph glyph-name="four" unicode="4" d="M632 202 l-152 0 l0 -202 l-33 0 l0 202 l-402 0 l0 24 l387 474 l39 0 l-382 -468 l358 0 l0 178 l33 0 l0 -178 l152 0 l0 -30 Z" /><glyph glyph-name="five" unicode="5" d="M218 401 q154 0 222.5 -52.5 q68.5 -52.5 68.5 -150.5 q0 -58 -27 -104 q-27 -46 -80.5 -72 q-53.5 -26 -130.5 -26 q-76 0 -142 27 q-66 27 -100 70 l19 24 q31 -40 91 -65 q60 -25 132 -25 q99 0 151.5 47 q52.5 47 52.5 124 q0 85 -60 128.5 q-60 43.5 -204 43.5 l-136 0 l37 330 l361 0 l0 -31 l-333 0 l-30 -268 l108 0 Z" /><glyph glyph-name="six" unicode="6" d="M329 409 q69 0 122 -25 q53 -25 81.5 -71.5 q28.5 -46.5 28.5 -108.5 q0 -62 -29 -109 q-29 -47 -81 -73 q-52 -26 -117 -26 q-135 0 -206 93 q-71 93 -71 259 q0 116 38 195.5 q38 79.5 106 120 q68 40.5 160 40.5 q96 0 153 -35 l-15 -27 q-49 31 -138 31 q-125 0 -197.5 -82 q-72.5 -82 -72.5 -238 q0 -56 10 -106 q18 76 80 119 q62 43 148 43 ZM333 26 q87 0 141 48.5 q54 48.5 54 128.5 q0 81 -54.5 129 q-54.5 48 -147.5 48 q-60 0 -106.5 -23.5 q-46.5 -23.5 -72.5 -64.5 q-26 -41 -26 -91 q0 -44 24.5 -84.5 q24.5 -40.5 72.5 -65.5 q48 -25 115 -25 Z" /><glyph glyph-name="seven" unicode="7" d="M528 700 l0 -24 l-308 -676 l-37 0 l306 669 l-421 0 l0 -138 l-33 0 l0 169 l493 0 Z" /><glyph glyph-name="eight" unicode="8" d="M408 366 q79 -17 122.5 -63 q43.5 -46 43.5 -113 q0 -90 -69.5 -142 q-69.5 -52 -191.5 -52 q-122 0 -191 52 q-69 52 -69 142 q0 68 42.5 113.5 q42.5 45.5 122.5 62.5 q-67 16 -103.5 58 q-36.5 42 -36.5 102 q0 82 63.5 130 q63.5 48 171.5 48 q108 0 172 -48 q64 -48 64 -130 q0 -60 -36.5 -102 q-36.5 -42 -104.5 -58 ZM112 526 q0 -67 53 -106.5 q53 -39.5 148 -39.5 q95 0 149 39.5 q54 39.5 54 106.5 q0 68 -55 108 q-55 40 -148 40 q-93 0 -147 -40 q-54 -40 -54 -108 ZM313 26 q107 0 167.5 44 q60.5 44 60.5 119 q0 75 -60.5 118.5 q-60.5 43.5 -167.5 43.5 q-107 0 -166.5 -43.5 q-59.5 -43.5 -59.5 -118.5 q0 -76 59.5 -119.5 q59.5 -43.5 166.5 -43.5 Z" /><glyph glyph-name="nine" unicode="9" d="M263 704 q135 0 205.5 -93 q70.5 -93 70.5 -259 q0 -116 -37.5 -195.5 q-37.5 -79.5 -105.5 -120 q-68 -40.5 -160 -40.5 q-97 0 -154 35 l15 27 q49 -31 138 -31 q126 0 198 82 q72 82 72 238 q0 62 -10 108 q-17 -77 -79.5 -120.5 q-62.5 -43.5 -148.5 -43.5 q-69 0 -122 25 q-53 25 -81.5 71.5 q-28.5 46.5 -28.5 108.5 q0 62 29.5 109 q29.5 47 81 73 q51.5 26 117.5 26 ZM270 320 q60 0 107 23.5 q47 23.5 73 64.5 q26 41 26 91 q0 44 -24.5 84.5 q-24.5 40.5 -73 65.5 q-48.5 25 -115.5 25 q-87 0 -140.5 -48.5 q-53.5 -48.5 -53.5 -128.5 q0 -81 54 -129 q54 -48 147 -48 Z" /><glyph glyph-name="colon" unicode=":" d="M95 457 q-14 0 -23.5 9.5 q-9.5 9.5 -9.5 23.5 q0 14 10 23.5 q10 9.5 23 9.5 q14 0 23.5 -9.5 q9.5 -9.5 9.5 -23.5 q0 -14 -9.5 -23.5 q-9.5 -9.5 -23.5 -9.5 ZM95 -3 q-14 0 -23.5 9.5 q-9.5 9.5 -9.5 23.5 q0 14 10 23.5 q10 9.5 23 9.5 q14 0 23.5 -9.5 q9.5 -9.5 9.5 -23.5 q0 -14 -9.5 -23.5 q-9.5 -9.5 -23.5 -9.5 Z" /><glyph glyph-name="semicolon" unicode=";" d="M95 457 q-14 0 -23.5 9.5 q-9.5 9.5 -9.5 23.5 q0 14 10 23.5 q10 9.5 23 9.5 q14 0 23.5 -9.5 q9.5 -9.5 9.5 -23.5 q0 -14 -9.5 -23.5 q-9.5 -9.5 -23.5 -9.5 ZM95 63 q14 0 23.5 -10 q9.5 -10 9.5 -23 q0 -9 -2.5 -19.5 q-2.5 -10.5 -3.5 -17.5 l-36 -134 l-26 0 l31 138 q-13 2 -21 11 q-8 9 -8 22 q0 14 9.5 23.5 q9.5 9.5 23.5 9.5 Z" /><glyph glyph-name="less" unicode="&lt;" d="M490 506 l-383 -156 l383 -156 l0 -32 l-416 172 l0 32 l416 173 l0 -33 Z" /><glyph glyph-name="equal" unicode="=" d="M74 476 l416 0 l0 -30 l-416 0 l0 30 ZM74 254 l416 0 l0 -30 l-416 0 l0 30 Z" /><glyph glyph-name="greater" unicode="&gt;" d="M490 366 l0 -32 l-416 -172 l0 32 l383 156 l-383 156 l0 33 l416 -173 Z" /><glyph glyph-name="question" unicode="?" d="M246 194 q0 42 14 74 q14 32 33.5 54 q19.5 22 52.5 51 q46 40 69 73.5 q23 33.5 23 85.5 q0 63 -49 102.5 q-49 39.5 -137 39.5 q-70 0 -121.5 -21 q-51.5 -21 -88.5 -63 l-24 20 q83 94 235 94 q100 0 159.5 -46.5 q59.5 -46.5 59.5 -122.5 q0 -42 -13.5 -74 q-13.5 -32 -33 -54.5 q-19.5 -22.5 -52.5 -51.5 q-31 -27 -49.5 -47 q-18.5 -20 -31 -48.5 q-12.5 -28.5 -12.5 -65.5 l-34 0 ZM263 -3 q-13 0 -22.5 9.5 q-9.5 9.5 -9.5 22.5 q0 14 9.5 23.5 q9.5 9.5 22.5 9.5 q14 0 23.5 -9.5 q9.5 -9.5 9.5 -23.5 q0 -13 -9.5 -22.5 q-9.5 -9.5 -23.5 -9.5 Z" /><glyph glyph-name="at" unicode="@" d="M518 704 q132 0 236 -55.5 q104 -55.5 162.5 -156.5 q58.5 -101 58.5 -231 q0 -125 -40 -194.5 q-40 -69.5 -105 -69.5 q-45 0 -71.5 26.5 q-26.5 26.5 -26.5 71.5 l0 48 q-29 -68 -88 -107 q-59 -39 -135 -39 q-70 0 -127.5 33.5 q-57.5 33.5 -90 93 q-32.5 59.5 -32.5 134.5 q0 75 32.5 134 q32.5 59 90 92.5 q57.5 33.5 127.5 33.5 q76 0 135 -38.5 q59 -38.5 88 -106.5 l0 141 l31 0 l0 -408 q0 -41 19 -61 q19 -20 50 -20 q51 0 83 62.5 q32 62.5 32 172.5 q0 124 -54.5 218.5 q-54.5 94.5 -152 146.5 q-97.5 52 -222.5 52 q-126 0 -224 -53 q-98 -53 -153 -149.5 q-55 -96.5 -55 -220.5 q0 -124 54.5 -220 q54.5 -96 151.5 -150 q97 -54 222 -54 q47 0 98 11 q51 11 91 33 l11 -26 q-43 -23 -97 -34.5 q-54 -11.5 -103 -11.5 q-133 0 -237 57.5 q-104 57.5 -162 160.5 q-58 103 -58 234 q0 132 59 234.5 q59 102.5 163.5 159 q104.5 56.5 238.5 56.5 ZM511 26 q63 0 113 29.5 q50 29.5 79 82 q29 52.5 29 120.5 q0 67 -29 119.5 q-29 52.5 -79 82 q-50 29.5 -113 29.5 q-63 0 -113 -29 q-50 -29 -78.5 -82 q-28.5 -53 -28.5 -120 q0 -67 28.5 -120 q28.5 -53 79 -82.5 q50.5 -29.5 112.5 -29.5 Z" /><glyph glyph-name="A" unicode="a" d="M557 205 l-419 0 l-94 -205 l-37 0 l324 700 l33 0 l324 -700 l-37 0 l-94 205 ZM544 234 l-196 427 l-197 -427 l393 0 Z" /><glyph glyph-name="B" unicode="b" d="M521 360 q82 -13 124 -57.5 q42 -44.5 42 -118.5 q0 -90 -64 -137 q-64 -47 -191 -47 l-304 0 l0 700 l284 0 q111 0 174 -46 q63 -46 63 -132 q0 -63 -34 -104 q-34 -41 -94 -58 ZM162 670 l0 -300 l251 0 q97 0 150 38.5 q53 38.5 53 111.5 q0 73 -53 111.5 q-53 38.5 -150 38.5 l-251 0 ZM434 30 q109 0 164 38 q55 38 55 117 q0 80 -55 118 q-55 38 -164 38 l-272 0 l0 -311 l272 0 Z" /><glyph glyph-name="C" unicode="c" d="M418 -4 q-102 0 -184.5 46 q-82.5 46 -129.5 127 q-47 81 -47 181 q0 100 47 181 q47 81 129.5 127 q82.5 46 184.5 46 q72 0 135 -23.5 q63 -23.5 108 -69.5 l-21 -22 q-87 84 -221 84 q-92 0 -167 -42.5 q-75 -42.5 -118 -116.5 q-43 -74 -43 -164 q0 -90 43 -164 q43 -74 118 -116.5 q75 -42.5 167 -42.5 q133 0 221 85 l21 -22 q-45 -46 -107.5 -70 q-62.5 -24 -135.5 -24 Z" /><glyph glyph-name="D" unicode="d" d="M128 700 l270 0 q109 0 193.5 -45 q84.5 -45 131 -124.5 q46.5 -79.5 46.5 -180.5 q0 -101 -46.5 -180.5 q-46.5 -79.5 -131 -124.5 q-84.5 -45 -193.5 -45 l-270 0 l0 700 ZM396 31 q102 0 178.5 41 q76.5 41 118.5 113.5 q42 72.5 42 164.5 q0 92 -42 164.5 q-42 72.5 -118.5 113.5 q-76.5 41 -178.5 41 l-234 0 l0 -638 l234 0 Z" /><glyph glyph-name="E" unicode="e" d="M601 31 l0 -31 l-473 0 l0 700 l459 0 l0 -31 l-425 0 l0 -298 l380 0 l0 -31 l-380 0 l0 -309 l439 0 Z" /><glyph glyph-name="F" unicode="f" d="M162 669 l0 -320 l380 0 l0 -30 l-380 0 l0 -319 l-34 0 l0 700 l459 0 l0 -31 l-425 0 Z" /><glyph glyph-name="G" unicode="g" d="M634 345 l32 0 l0 -259 q-46 -44 -109.5 -67 q-63.5 -23 -135.5 -23 q-103 0 -186 46 q-83 46 -130.5 127 q-47.5 81 -47.5 181 q0 100 47.5 181 q47.5 81 130.5 127 q83 46 186 46 q75 0 138 -23 q63 -23 108 -69 l-20 -23 q-87 84 -225 84 q-94 0 -169.5 -42.5 q-75.5 -42.5 -118.5 -116.5 q-43 -74 -43 -164 q0 -90 43 -164 q43 -74 118.5 -116.5 q75.5 -42.5 169.5 -42.5 q131 0 212 73 l0 245 Z" /><glyph glyph-name="H" unicode="h" d="M687 700 l0 -700 l-34 0 l0 340 l-491 0 l0 -340 l-34 0 l0 700 l34 0 l0 -329 l491 0 l0 329 l34 0 Z" /><glyph glyph-name="I" unicode="i" d="M128 700 l34 0 l0 -700 l-34 0 l0 700 Z" /><glyph glyph-name="J" unicode="j" d="M181 -4 q-55 0 -103 26.5 q-48 26.5 -76 72.5 l21 22 q29 -44 69.5 -67 q40.5 -23 89.5 -23 q74 0 109.5 42.5 q35.5 42.5 35.5 130.5 l0 469 l-260 0 l0 31 l294 0 l0 -501 q0 -203 -180 -203 Z" /><glyph glyph-name="K" unicode="k" d="M329 357 l-167 -172 l0 -185 l-34 0 l0 700 l34 0 l0 -471 l458 471 l42 0 l-310 -320 l332 -380 l-42 0 l-313 357 Z" /><glyph glyph-name="L" unicode="l" d="M128 700 l34 0 l0 -669 l410 0 l0 -31 l-444 0 l0 700 Z" /><glyph glyph-name="M" unicode="m" d="M795 0 l-1 631 l-307 -534 l-18 0 l-308 532 l0 -629 l-33 0 l0 700 l28 0 l322 -560 l321 560 l28 0 l1 -700 l-33 0 Z" /><glyph glyph-name="N" unicode="n" d="M687 700 l0 -700 l-28 0 l-497 638 l0 -638 l-34 0 l0 700 l28 0 l497 -638 l0 638 l34 0 Z" /><glyph glyph-name="O" unicode="o" d="M418 -4 q-102 0 -184.5 46 q-82.5 46 -129.5 127 q-47 81 -47 181 q0 100 47 181 q47 81 129.5 127 q82.5 46 184.5 46 q102 0 185 -46 q83 -46 130 -127 q47 -81 47 -181 q0 -100 -47 -181 q-47 -81 -130 -127 q-83 -46 -185 -46 ZM418 27 q92 0 167 42 q75 42 118 116 q43 74 43 165 q0 91 -43 165 q-43 74 -118 116 q-75 42 -167 42 q-92 0 -166.5 -42 q-74.5 -42 -117.5 -116 q-43 -74 -43 -165 q0 -91 43 -165 q43 -74 117.5 -116 q74.5 -42 166.5 -42 Z" /><glyph glyph-name="P" unicode="p" d="M371 700 q131 0 204.5 -61.5 q73.5 -61.5 73.5 -170.5 q0 -110 -73.5 -171.5 q-73.5 -61.5 -204.5 -61.5 l-209 0 l0 -235 l-34 0 l0 700 l243 0 ZM373 266 q117 0 180 52.5 q63 52.5 63 149.5 q0 96 -63 148.5 q-63 52.5 -180 52.5 l-211 0 l0 -403 l211 0 Z" /><glyph glyph-name="Q" unicode="q" d="M810 -51 q-31 -38 -72 -57.5 q-41 -19.5 -90 -19.5 q-54 0 -107 29.5 q-53 29.5 -116 94.5 l-7 0 q-102 0 -184.5 46 q-82.5 46 -129.5 127 q-47 81 -47 181 q0 100 47 181 q47 81 129.5 127 q82.5 46 184.5 46 q102 0 185 -46 q83 -46 130 -127 q47 -81 47 -181 q0 -92 -40 -167.5 q-40 -75.5 -110.5 -124 q-70.5 -48.5 -159.5 -59.5 q92 -98 179 -98 q82 0 142 70 l19 -22 ZM91 350 q0 -90 43 -164 q43 -74 117.5 -116.5 q74.5 -42.5 166.5 -42.5 q92 0 167 42.5 q75 42.5 118 116.5 q43 74 43 164 q0 90 -43 164 q-43 74 -118 116.5 q-75 42.5 -167 42.5 q-92 0 -166.5 -42.5 q-74.5 -42.5 -117.5 -116.5 q-43 -74 -43 -164 Z" /><glyph glyph-name="R" unicode="r" d="M620 0 l-173 241 q-34 -6 -76 -6 l-209 0 l0 -235 l-34 0 l0 700 l243 0 q131 0 204.5 -61.5 q73.5 -61.5 73.5 -170.5 q0 -84 -43.5 -140.5 q-43.5 -56.5 -124.5 -78.5 l179 -249 l-40 0 ZM373 266 q117 0 180 52.5 q63 52.5 63 149.5 q0 96 -63 148.5 q-63 52.5 -180 52.5 l-211 0 l0 -403 l211 0 Z" /><glyph glyph-name="S" unicode="s" d="M305 -4 q-76 0 -144.5 27 q-68.5 27 -105.5 70 l18 24 q35 -40 97.5 -65.5 q62.5 -25.5 133.5 -25.5 q105 0 158.5 41.5 q53.5 41.5 53.5 106.5 q0 50 -28 80.5 q-28 30.5 -69 46 q-41 15.5 -112 32.5 q-76 19 -122 37 q-46 18 -78 55 q-32 37 -32 99 q0 49 26 90 q26 41 79.5 65.5 q53.5 24.5 133.5 24.5 q57 0 112.5 -17 q55.5 -17 94.5 -47 l-15 -27 q-41 30 -91.5 45.5 q-50.5 15.5 -99.5 15.5 q-102 0 -154.5 -42.5 q-52.5 -42.5 -52.5 -107.5 q0 -51 28.5 -81.5 q28.5 -30.5 70 -46.5 q41.5 -16 111.5 -33 q76 -19 122 -36.5 q46 -17.5 77.5 -54 q31.5 -36.5 31.5 -97.5 q0 -49 -26.5 -90 q-26.5 -41 -81.5 -65 q-55 -24 -136 -24 Z" /><glyph glyph-name="T" unicode="t" d="M261 669 l-257 0 l0 31 l547 0 l0 -31 l-257 0 l0 -669 l-33 0 l0 669 Z" /><glyph glyph-name="U" unicode="u" d="M397 -4 q-130 0 -202.5 76 q-72.5 76 -72.5 223 l0 405 l34 0 l0 -404 q0 -134 62 -201.5 q62 -67.5 179 -67.5 q116 0 178.5 67.5 q62.5 67.5 62.5 201.5 l0 404 l33 0 l0 -405 q0 -147 -72 -223 q-72 -76 -202 -76 Z" /><glyph glyph-name="V" unicode="v" d="M669 700 l-314 -700 l-33 0 l-314 700 l38 0 l294 -656 l293 656 l36 0 Z" /><glyph glyph-name="W" unicode="w" d="M1045 700 l-239 -700 l-34 0 l-228 653 l-227 -653 l-35 0 l-239 700 l36 0 l221 -651 l228 651 l33 0 l227 -652 l223 652 l34 0 Z" /><glyph glyph-name="X" unicode="x" d="M567 0 l-252 337 l-253 -337 l-39 0 l271 362 l-252 338 l40 0 l234 -313 l233 313 l38 0 l-252 -338 l272 -362 l-40 0 Z" /><glyph glyph-name="Y" unicode="y" d="M325 239 l0 -239 l-34 0 l0 239 l-283 461 l37 0 l264 -428 l264 428 l36 0 l-284 -461 Z" /><glyph glyph-name="Z" unicode="z" d="M605 31 l0 -31 l-556 0 l0 24 l499 645 l-494 0 l0 31 l540 0 l0 -24 l-499 -645 l510 0 Z" /><glyph glyph-name="bracketleft" unicode="[" d="M128 742 l144 0 l0 -29 l-111 0 l0 -878 l111 0 l0 -29 l-144 0 l0 936 Z" /><glyph glyph-name="backslash" unicode="\" d="M299 -100 l-330 942 l31 0 l330 -942 l-31 0 Z" /><glyph glyph-name="bracketright" unicode="]" d="M24 -194 l0 29 l110 0 l0 878 l-110 0 l0 29 l143 0 l0 -936 l-143 0 Z" /><glyph glyph-name="asciicircum" unicode="^" d="M439 145 l-156 378 l-157 -378 l-31 0 l172 410 l32 0 l172 -410 l-32 0 Z" /><glyph glyph-name="underscore" unicode="_" d="M0 0 l500 0 l0 -26 l-500 0 l0 26 Z" /><glyph glyph-name="grave" unicode="`" d="M157 720 l54 0 l139 -113 l-40 0 l-153 113 Z" /><glyph glyph-name="a" unicode="a" d="M281 523 q93 0 142.5 -48 q49.5 -48 49.5 -139 l0 -336 l-32 0 l0 104 q-25 -50 -74.5 -78.5 q-49.5 -28.5 -118.5 -28.5 q-87 0 -136.5 40 q-49.5 40 -49.5 106 q0 63 45 102.5 q45 39.5 144 39.5 l189 0 l0 51 q0 77 -40.5 117 q-40.5 40 -119.5 40 q-55 0 -103 -19 q-48 -19 -82 -51 l-18 24 q38 36 91.5 56 q53.5 20 112.5 20 ZM250 25 q140 0 190 125 l0 108 l-189 0 q-81 0 -118.5 -30.5 q-37.5 -30.5 -37.5 -82.5 q0 -56 41.5 -88 q41.5 -32 113.5 -32 Z" /><glyph glyph-name="b" unicode="b" d="M367 523 q71 0 129 -33.5 q58 -33.5 91.5 -93.5 q33.5 -60 33.5 -136 q0 -76 -33.5 -136 q-33.5 -60 -91.5 -93.5 q-58 -33.5 -129 -33.5 q-76 0 -135.5 38.5 q-59.5 38.5 -88.5 106.5 l0 -142 l-32 0 l0 742 l33 0 l0 -362 q29 67 88.5 105 q59.5 38 134.5 38 ZM366 27 q63 0 113.5 29.5 q50.5 29.5 79.5 82.5 q29 53 29 121 q0 68 -29 120.5 q-29 52.5 -79.5 82 q-50.5 29.5 -113.5 29.5 q-63 0 -113.5 -29.5 q-50.5 -29.5 -79.5 -82 q-29 -52.5 -29 -120.5 q0 -68 29 -121 q29 -53 79.5 -82.5 q50.5 -29.5 113.5 -29.5 Z" /><glyph glyph-name="c" unicode="c" d="M310 -3 q-74 0 -132.5 33.5 q-58.5 33.5 -92 93.5 q-33.5 60 -33.5 136 q0 76 33.5 136 q33.5 60 92 93.5 q58.5 33.5 132.5 33.5 q59 0 109.5 -22.5 q50.5 -22.5 82.5 -66.5 l-25 -21 q-28 39 -71.5 59 q-43.5 20 -95.5 20 q-64 0 -115.5 -29.5 q-51.5 -29.5 -80.5 -82 q-29 -52.5 -29 -120.5 q0 -68 29 -121 q29 -53 80.5 -82.5 q51.5 -29.5 115.5 -29.5 q52 0 95.5 20 q43.5 20 71.5 59 l25 -20 q-32 -44 -82.5 -66.5 q-50.5 -22.5 -109.5 -22.5 Z" /><glyph glyph-name="d" unicode="d" d="M562 742 l0 -742 l-32 0 l0 142 q-29 -68 -88.5 -106.5 q-59.5 -38.5 -135.5 -38.5 q-71 0 -129 33.5 q-58 33.5 -91.5 93.5 q-33.5 60 -33.5 136 q0 76 33.5 136 q33.5 60 91.5 93.5 q58 33.5 129 33.5 q75 0 134.5 -38 q59.5 -38 88.5 -105 l0 362 l33 0 ZM307 27 q63 0 113.5 29.5 q50.5 29.5 79.5 82.5 q29 53 29 121 q0 68 -29 120.5 q-29 52.5 -79.5 82 q-50.5 29.5 -113.5 29.5 q-63 0 -113.5 -29.5 q-50.5 -29.5 -79.5 -82 q-29 -52.5 -29 -120.5 q0 -68 29 -121 q29 -53 79.5 -82.5 q50.5 -29.5 113.5 -29.5 Z" /><glyph glyph-name="e" unicode="e" d="M539 255 l-455 0 q1 -66 31 -118 q30 -52 82.5 -81 q52.5 -29 117.5 -29 q53 0 98 19.5 q45 19.5 74 57.5 l21 -22 q-35 -41 -85 -63 q-50 -22 -108 -22 q-76 0 -135.5 33.5 q-59.5 33.5 -93.5 93.5 q-34 60 -34 136 q0 76 31.5 136 q31.5 60 87.5 93.5 q56 33.5 125 33.5 q68 0 123.5 -33 q55.5 -33 87.5 -92 q32 -59 32 -134 l0 -9 ZM296 493 q-58 0 -105 -27 q-47 -27 -75 -75.5 q-28 -48.5 -31 -108.5 l423 0 q-4 60 -32.5 108.5 q-28.5 48.5 -75 75.5 q-46.5 27 -104.5 27 Z" /><glyph glyph-name="f" unicode="f" d="M255 716 q-51 0 -76.5 -27.5 q-25.5 -27.5 -25.5 -81.5 l0 -88 l171 0 l0 -29 l-171 0 l0 -490 l-33 0 l0 490 l-98 0 l0 29 l98 0 l0 92 q0 62 35 98 q35 36 98 36 q30 0 57.5 -9 q27.5 -9 45.5 -26 l-17 -25 q-34 31 -84 31 Z" /><glyph glyph-name="g" unicode="g" d="M568 519 l0 -469 q0 -126 -61 -186.5 q-61 -60.5 -184 -60.5 q-72 0 -134 22 q-62 22 -99 62 l19 25 q40 -38 94.5 -58.5 q54.5 -20.5 118.5 -20.5 q109 0 161 51.5 q52 51.5 52 161.5 l0 110 q-29 -64 -89 -101 q-60 -37 -137 -37 q-73 0 -131.5 32.5 q-58.5 32.5 -92 90 q-33.5 57.5 -33.5 130.5 q0 73 33.5 130.5 q33.5 57.5 92 89.5 q58.5 32 131.5 32 q77 0 137.5 -37 q60.5 -37 89.5 -102 l0 135 l32 0 ZM310 48 q64 0 115.5 28.5 q51.5 28.5 81 79.5 q29.5 51 29.5 115 q0 64 -29.5 114.5 q-29.5 50.5 -81 78.5 q-51.5 28 -115.5 28 q-64 0 -115.5 -28 q-51.5 -28 -80.5 -78.5 q-29 -50.5 -29 -114.5 q0 -65 29 -115.5 q29 -50.5 80.5 -79 q51.5 -28.5 115.5 -28.5 Z" /><glyph glyph-name="h" unicode="h" d="M356 523 q97 0 153 -56.5 q56 -56.5 56 -161.5 l0 -305 l-33 0 l0 303 q0 92 -46.5 140.5 q-46.5 48.5 -132.5 48.5 q-97 0 -153 -57.5 q-56 -57.5 -56 -154.5 l0 -280 l-33 0 l0 742 l33 0 l0 -347 q26 60 81 94 q55 34 131 34 Z" /><glyph glyph-name="i" unicode="i" d="M111 519 l33 0 l0 -519 l-33 0 l0 519 ZM127 655 q-13 0 -23 9.5 q-10 9.5 -10 22.5 q0 14 9.5 23.5 q9.5 9.5 23.5 9.5 q13 0 23 -9.5 q10 -9.5 10 -22.5 q0 -13 -10 -23 q-10 -10 -23 -10 Z" /><glyph glyph-name="j" unicode="j" d="M19 -197 q-32 0 -60 9 q-28 9 -46 27 l17 24 q33 -31 87 -31 q48 0 73.5 28.5 q25.5 28.5 25.5 81.5 l0 577 l33 0 l0 -581 q0 -62 -34 -98.5 q-34 -36.5 -96 -36.5 ZM132 655 q-13 0 -23 9.5 q-10 9.5 -10 22.5 q0 14 9.5 23.5 q9.5 9.5 23.5 9.5 q13 0 23 -9.5 q10 -9.5 10 -22.5 q0 -13 -10 -23 q-10 -10 -23 -10 Z" /><glyph glyph-name="k" unicode="k" d="M289 291 l-145 -133 l0 -158 l-33 0 l0 742 l33 0 l0 -544 l352 321 l44 0 l-225 -208 l248 -311 l-42 0 l-232 291 Z" /><glyph glyph-name="l" unicode="l" d="M111 742 l33 0 l0 -742 l-33 0 l0 742 Z" /><glyph glyph-name="m" unicode="m" d="M757 523 q95 0 149.5 -56 q54.5 -56 54.5 -162 l0 -305 l-33 0 l0 303 q0 92 -45 140.5 q-45 48.5 -128 48.5 q-93 0 -148 -58 q-55 -58 -55 -154 l0 -280 l-33 0 l0 303 q0 92 -45 140.5 q-45 48.5 -127 48.5 q-94 0 -148.5 -57.5 q-54.5 -57.5 -54.5 -154.5 l0 -280 l-33 0 l0 519 l32 0 l0 -125 q24 60 77.5 94.5 q53.5 34.5 128.5 34.5 q75 0 126 -36 q51 -36 68 -105 q23 65 79 103 q56 38 135 38 Z" /><glyph glyph-name="n" unicode="n" d="M356 523 q97 0 153 -56.5 q56 -56.5 56 -161.5 l0 -305 l-33 0 l0 303 q0 92 -46.5 140.5 q-46.5 48.5 -132.5 48.5 q-97 0 -153 -57.5 q-56 -57.5 -56 -154.5 l0 -280 l-33 0 l0 519 l32 0 l0 -127 q25 61 80.5 96 q55.5 35 132.5 35 Z" /><glyph glyph-name="o" unicode="o" d="M307 -3 q-72 0 -130.5 33.5 q-58.5 33.5 -91.5 93.5 q-33 60 -33 136 q0 76 33 136 q33 60 91.5 93.5 q58.5 33.5 130.5 33.5 q73 0 131 -33.5 q58 -33.5 91 -93.5 q33 -60 33 -136 q0 -76 -33 -136 q-33 -60 -91 -93.5 q-58 -33.5 -131 -33.5 ZM307 27 q63 0 113.5 29.5 q50.5 29.5 79.5 82.5 q29 53 29 121 q0 68 -29 120.5 q-29 52.5 -79.5 82 q-50.5 29.5 -113.5 29.5 q-63 0 -113.5 -29.5 q-50.5 -29.5 -79.5 -82 q-29 -52.5 -29 -120.5 q0 -68 29 -121 q29 -53 79.5 -82.5 q50.5 -29.5 113.5 -29.5 Z" /><glyph glyph-name="p" unicode="p" d="M367 523 q71 0 129 -33.5 q58 -33.5 91.5 -94 q33.5 -60.5 33.5 -136.5 q0 -76 -33.5 -135.5 q-33.5 -59.5 -91.5 -93 q-58 -33.5 -129 -33.5 q-75 0 -134.5 38 q-59.5 38 -88.5 104 l0 -333 l-33 0 l0 713 l32 0 l0 -142 q29 68 88.5 107 q59.5 39 135.5 39 ZM366 27 q63 0 113.5 29.5 q50.5 29.5 79.5 82 q29 52.5 29 120.5 q0 68 -29 121 q-29 53 -79.5 82.5 q-50.5 29.5 -113.5 29.5 q-63 0 -113.5 -29.5 q-50.5 -29.5 -79.5 -82.5 q-29 -53 -29 -121 q0 -68 29 -120.5 q29 -52.5 79.5 -82 q50.5 -29.5 113.5 -29.5 Z" /><glyph glyph-name="q" unicode="q" d="M562 519 l0 -713 l-33 0 l0 333 q-29 -66 -88.5 -104 q-59.5 -38 -134.5 -38 q-71 0 -129 33.5 q-58 33.5 -91.5 93 q-33.5 59.5 -33.5 135.5 q0 76 33.5 136.5 q33.5 60.5 91.5 94 q58 33.5 129 33.5 q76 0 135.5 -39 q59.5 -39 88.5 -107 l0 142 l32 0 ZM307 27 q63 0 113.5 29.5 q50.5 29.5 79.5 82 q29 52.5 29 120.5 q0 68 -29 121 q-29 53 -79.5 82.5 q-50.5 29.5 -113.5 29.5 q-63 0 -113.5 -29.5 q-50.5 -29.5 -79.5 -82.5 q-29 -53 -29 -121 q0 -68 29 -120.5 q29 -52.5 79.5 -82 q50.5 -29.5 113.5 -29.5 Z" /><glyph glyph-name="r" unicode="r" d="M143 394 q23 62 74.5 95.5 q51.5 33.5 127.5 33.5 l0 -33 l-9 0 q-90 0 -141 -57 q-51 -57 -51 -157 l0 -276 l-33 0 l0 519 l32 0 l0 -125 Z" /><glyph glyph-name="s" unicode="s" d="M236 -3 q-63 0 -118.5 19 q-55.5 19 -86.5 50 l16 26 q32 -28 82.5 -47 q50.5 -19 107.5 -19 q84 0 124 28.5 q40 28.5 40 79.5 q0 36 -21.5 57 q-21.5 21 -53.5 31 q-32 10 -86 20 q-63 12 -100.5 24.5 q-37.5 12.5 -63.5 40.5 q-26 28 -26 78 q0 59 48.5 98.5 q48.5 39.5 141.5 39.5 q48 0 96 -14.5 q48 -14.5 78 -38.5 l-17 -26 q-31 24 -72.5 36.5 q-41.5 12.5 -85.5 12.5 q-77 0 -116 -29.5 q-39 -29.5 -39 -77.5 q0 -38 22 -60 q22 -22 54.5 -32.5 q32.5 -10.5 88.5 -21.5 q60 -11 97 -23.5 q37 -12.5 62.5 -39.5 q25.5 -27 25.5 -75 q0 -63 -51 -100 q-51 -37 -147 -37 Z" /><glyph glyph-name="t" unicode="t" d="M356 33 q-18 -17 -46 -26.5 q-28 -9.5 -58 -9.5 q-63 0 -97.5 35.5 q-34.5 35.5 -34.5 97.5 l0 360 l-98 0 l0 29 l98 0 l0 114 l33 0 l0 -114 l171 0 l0 -29 l-171 0 l0 -355 q0 -53 26 -81 q26 -28 76 -28 q50 0 84 31 l17 -24 Z" /><glyph glyph-name="u" unicode="u" d="M555 519 l0 -519 l-32 0 l0 126 q-24 -61 -77 -95 q-53 -34 -126 -34 q-101 0 -158 56 q-57 56 -57 161 l0 305 l33 0 l0 -303 q0 -92 47.5 -140.5 q47.5 -48.5 135.5 -48.5 q93 0 147 57.5 q54 57.5 54 154.5 l0 280 l33 0 Z" /><glyph glyph-name="v" unicode="v" d="M512 519 l-237 -519 l-33 0 l-237 519 l36 0 l218 -482 l218 482 l35 0 Z" /><glyph glyph-name="w" unicode="w" d="M837 519 l-198 -519 l-31 0 l-184 475 l-185 -475 l-29 0 l-199 519 l32 0 l181 -481 l185 481 l30 0 l184 -481 l182 481 l32 0 Z" /><glyph glyph-name="x" unicode="x" d="M441 0 l-188 244 l-188 -244 l-39 0 l208 268 l-197 251 l39 0 l177 -227 l176 227 l38 0 l-195 -251 l210 -268 l-41 0 Z" /><glyph glyph-name="y" unicode="y" d="M512 519 l-272 -597 q-29 -65 -66 -92 q-37 -27 -87 -27 q-35 0 -65 11.5 q-30 11.5 -51 34.5 l19 26 q21 -23 44 -33 q23 -10 53 -10 q39 0 67.5 22 q28.5 22 53.5 76 l33 71 l-236 518 l36 0 l218 -481 l218 481 l35 0 Z" /><glyph glyph-name="z" unicode="z" d="M450 29 l0 -29 l-405 0 l0 23 l356 467 l-351 0 l0 29 l395 0 l0 -23 l-357 -467 l362 0 Z" /><glyph glyph-name="braceleft" unicode="{" d="M177 341 q0 -29 -8.5 -44 q-8.5 -15 -27.5 -23 q19 -8 27.5 -23 q8.5 -15 8.5 -44 l0 -290 q0 -82 77 -82 l31 0 l0 -29 l-28 0 q-113 0 -113 110 l0 291 q0 53 -45 53 l-35 0 l0 29 l35 0 q45 0 45 52 l0 291 q0 110 113 110 l28 0 l0 -29 l-31 0 q-77 0 -77 -82 l0 -290 Z" /><glyph glyph-name="braceright" unicode="}" d="M245 289 l0 -29 l-35 0 q-45 0 -45 -53 l0 -291 q0 -110 -113 -110 l-28 0 l0 29 l31 0 q77 0 77 82 l0 290 q0 29 8.5 44 q8.5 15 27.5 23 q-19 8 -27.5 23 q-8.5 15 -8.5 44 l0 290 q0 82 -77 82 l-31 0 l0 29 l28 0 q113 0 113 -110 l0 -291 q0 -52 45 -52 l35 0 Z" /><glyph glyph-name="asciitilde" unicode="~" d="M384 282 q-33 0 -57 14.5 q-24 14.5 -55 43.5 q-27 25 -46.5 37.5 q-19.5 12.5 -44.5 12.5 q-39 0 -62.5 -28 q-23.5 -28 -25.5 -76 l-26 0 q3 62 33.5 97 q30.5 35 79.5 35 q33 0 57 -14.5 q24 -14.5 55 -43.5 q27 -25 46.5 -37.5 q19.5 -12.5 44.5 -12.5 q39 0 62.5 28 q23.5 28 25.5 76 l26 0 q-3 -62 -33.5 -97 q-30.5 -35 -79.5 -35 Z" /><glyph glyph-name="section" unicode="§" d="M436 284 q0 -45 -26.5 -79.5 q-26.5 -34.5 -69.5 -50.5 q35 -18 54 -45.5 q19 -27.5 19 -69.5 q0 -67 -51 -104.5 q-51 -37.5 -137 -37.5 q-55 0 -110 19.5 q-55 19.5 -84 49.5 l15 26 q30 -29 79 -48 q49 -19 101 -19 q74 0 114.5 29.5 q40.5 29.5 40.5 86.5 q0 38 -21 61.5 q-21 23.5 -52 35.5 q-31 12 -85 26 q-59 15 -94.5 29 q-35.5 14 -60 43.5 q-24.5 29.5 -24.5 78.5 q0 46 26.5 80 q26.5 34 69.5 50 q-34 18 -53 45 q-19 27 -19 69 q0 69 52 106.5 q52 37.5 147 37.5 q48 0 95.5 -14 q47.5 -14 78.5 -38 l-16 -26 q-31 24 -73 37 q-42 13 -86 13 q-81 0 -124 -29.5 q-43 -29.5 -43 -86.5 q0 -38 21 -61 q21 -23 51.5 -35 q30.5 -12 84.5 -26 q58 -15 94 -29.5 q36 -14.5 61 -44 q25 -29.5 25 -79.5 ZM303 170 q46 9 74.5 39 q28.5 30 28.5 75 q0 40 -21.5 64 q-21.5 24 -53.5 36.5 q-32 12.5 -86 26.5 q-51 14 -67 19 q-46 -10 -75 -39.5 q-29 -29.5 -29 -74.5 q0 -40 21.5 -64 q21.5 -24 53.5 -36.5 q32 -12.5 86 -26.5 q46 -12 68 -19 Z" /><glyph glyph-name="copyright" unicode="©" d="M409 -3 q-98 0 -178.5 47 q-80.5 47 -127 128 q-46.5 81 -46.5 178 q0 97 46.5 178 q46.5 81 127.5 128 q81 47 180 47 q99 0 179.5 -46 q80.5 -46 126.5 -126.5 q46 -80.5 46 -178.5 q0 -98 -47 -179.5 q-47 -81.5 -128 -128.5 q-81 -47 -179 -47 ZM409 20 q92 0 167.5 44 q75.5 44 119 120 q43.5 76 43.5 168 q0 92 -43 167 q-43 75 -117.5 118 q-74.5 43 -167.5 43 q-92 0 -167.5 -44 q-75.5 -44 -119 -119.5 q-43.5 -75.5 -43.5 -166.5 q0 -91 43 -166.5 q43 -75.5 118.5 -119.5 q75.5 -44 166.5 -44 ZM418 140 q-59 0 -106 27 q-47 27 -73.5 74.5 q-26.5 47.5 -26.5 108.5 q0 61 26.5 108.5 q26.5 47.5 73.5 74.5 q47 27 106 27 q46 0 86 -18 q40 -18 66 -52 l-22 -20 q-22 31 -56 47 q-34 16 -75 16 q-50 0 -90 -23 q-40 -23 -63 -64.5 q-23 -41.5 -23 -95.5 q0 -54 23 -95.5 q23 -41.5 63 -64.5 q40 -23 90 -23 q41 0 75 16 q34 16 56 47 l22 -20 q-26 -34 -66 -52 q-40 -18 -86 -18 Z" /><glyph glyph-name="guillemotleft" unicode="«" d="M56 260 l146 186 l35 0 l-146 -186 l146 -186 l-35 0 l-146 186 ZM213 260 l146 186 l35 0 l-146 -186 l146 -186 l-35 0 l-146 186 Z" /><glyph glyph-name="registered" unicode="®" d="M411 703 q99 0 179.5 -46 q80.5 -46 126.5 -126.5 q46 -80.5 46 -178.5 q0 -98 -47 -179.5 q-47 -81.5 -128 -128.5 q-81 -47 -179 -47 q-98 0 -178.5 47 q-80.5 47 -127 128 q-46.5 81 -46.5 178 q0 97 46.5 178 q46.5 81 127.5 128 q81 47 180 47 ZM409 20 q92 0 167.5 44 q75.5 44 119 120 q43.5 76 43.5 168 q0 92 -43 167 q-43 75 -117.5 118 q-74.5 43 -167.5 43 q-92 0 -167.5 -44 q-75.5 -44 -119 -119.5 q-43.5 -75.5 -43.5 -166.5 q0 -91 43 -166.5 q43 -75.5 118.5 -119.5 q75.5 -44 166.5 -44 ZM585 423 q0 -48 -26 -81 q-26 -33 -72 -45 l99 -154 l-31 0 l-96 149 q-18 -2 -28 -2 l-124 0 l0 -147 l-28 0 l0 414 l152 0 q71 0 112.5 -36.5 q41.5 -36.5 41.5 -97.5 ZM428 315 q61 0 95 28.5 q34 28.5 34 79.5 q0 52 -33.5 80 q-33.5 28 -95.5 28 l-122 0 l0 -216 l122 0 Z" /><glyph glyph-name="degree" unicode="°" d="M210 399 q-42 0 -77 20 q-35 20 -55.5 55 q-20.5 35 -20.5 77 q0 42 20.5 77 q20.5 35 55.5 55.5 q35 20.5 77 20.5 q41 0 76 -20.5 q35 -20.5 55.5 -55.5 q20.5 -35 20.5 -77 q0 -42 -20.5 -76.5 q-20.5 -34.5 -55.5 -55 q-35 -20.5 -76 -20.5 ZM210 423 q54 0 90.5 37 q36.5 37 36.5 91 q0 54 -36.5 91.5 q-36.5 37.5 -90.5 37.5 q-54 0 -90.5 -37.5 q-36.5 -37.5 -36.5 -91.5 q0 -54 36.5 -91 q36.5 -37 90.5 -37 Z" /><glyph glyph-name="plusminus" unicode="±" d="M490 372 l0 -29 l-193 0 l0 -187 l-31 0 l0 187 l-192 0 l0 29 l192 0 l0 189 l31 0 l0 -189 l193 0 ZM74 29 l416 0 l0 -29 l-416 0 l0 29 Z" /><glyph glyph-name="periodcentered" unicode="·" d="M115 233 q-14 0 -23.5 9.5 q-9.5 9.5 -9.5 23.5 q0 14 10 23.5 q10 9.5 23 9.5 q14 0 23.5 -9.5 q9.5 -9.5 9.5 -23.5 q0 -14 -9.5 -23.5 q-9.5 -9.5 -23.5 -9.5 Z" /><glyph glyph-name="guillemotright" unicode="»" d="M43 74 l145 186 l-145 186 l34 0 l147 -186 l-147 -186 l-34 0 ZM200 74 l145 186 l-145 186 l34 0 l147 -186 l-147 -186 l-34 0 Z" /><glyph glyph-name="uni0401" unicode="&#x401;" d="M605 31 l0 -31 l-473 0 l0 700 l459 0 l0 -31 l-425 0 l0 -298 l380 0 l0 -31 l-380 0 l0 -309 l439 0 ZM278 788 q-12 0 -21 9 q-9 9 -9 21 q0 13 9 22 q9 9 21 9 q13 0 21.5 -9 q8.5 -9 8.5 -22 q0 -12 -8.5 -21 q-8.5 -9 -21.5 -9 ZM446 788 q-13 0 -21.5 9 q-8.5 9 -8.5 21 q0 13 8.5 22 q8.5 9 21.5 9 q12 0 21 -9 q9 -9 9 -22 q0 -12 -9 -21 q-9 -9 -21 -9 Z" /><glyph glyph-name="uni0410" unicode="&#x410;" d="M571 205 l-419 0 l-94 -205 l-37 0 l324 700 l33 0 l324 -700 l-37 0 l-94 205 ZM558 234 l-196 427 l-197 -427 l393 0 Z" /><glyph glyph-name="uni0411" unicode="&#x411;" d="M132 700 l489 0 l0 -30 l-455 0 l0 -271 l243 0 q123 0 186.5 -49.5 q63.5 -49.5 63.5 -146.5 q0 -100 -67 -151.5 q-67 -51.5 -195 -51.5 l-265 0 l0 700 ZM400 29 q112 0 169 43.5 q57 43.5 57 129.5 q0 85 -56.5 126.5 q-56.5 41.5 -169.5 41.5 l-234 0 l0 -341 l234 0 Z" /><glyph glyph-name="uni0412" unicode="&#x412;" d="M509 360 q81 -13 122.5 -57.5 q41.5 -44.5 41.5 -118.5 q0 -90 -62 -137 q-62 -47 -185 -47 l-294 0 l0 700 l275 0 q108 0 169 -45.5 q61 -45.5 61 -131.5 q0 -64 -33.5 -105 q-33.5 -41 -94.5 -58 ZM166 370 l242 0 q93 0 144 38.5 q51 38.5 51 111.5 q0 74 -51 112.5 q-51 38.5 -144 38.5 l-242 0 l0 -301 ZM429 29 q210 0 210 157 q0 79 -53 117 q-53 38 -157 38 l-263 0 l0 -312 l263 0 Z" /><glyph glyph-name="uni0413" unicode="&#x413;" d="M555 669 l-389 0 l0 -669 l-34 0 l0 700 l424 0 l-1 -31 Z" /><glyph glyph-name="uni0414" unicode="&#x414;" d="M739 31 l0 -194 l-33 0 l0 163 l-664 0 l-1 -163 l-32 0 l1 194 l39 0 q70 6 98 119.5 q28 113.5 34 317.5 l7 232 l442 0 l0 -669 l109 0 ZM212 466 q-6 -178 -27 -290 q-21 -112 -72 -145 l483 0 l0 638 l-377 0 l-7 -203 Z" /><glyph glyph-name="uni0415" unicode="&#x415;" d="M605 31 l0 -31 l-473 0 l0 700 l459 0 l0 -31 l-425 0 l0 -298 l380 0 l0 -31 l-380 0 l0 -309 l439 0 Z" /><glyph glyph-name="uni0416" unicode="&#x416;" d="M670 340 l-162 0 l0 -340 l-33 0 l0 340 l-162 0 l-243 -340 l-40 0 l256 358 l-236 342 l39 0 l226 -329 l160 0 l0 329 l33 0 l0 -329 l161 0 l225 329 l39 0 l-236 -342 l257 -358 l-41 0 l-243 340 Z" /><glyph glyph-name="uni0417" unicode="&#x417;" d="M390 366 q75 -15 116.5 -59.5 q41.5 -44.5 41.5 -110.5 q0 -61 -36 -106.5 q-36 -45.5 -95.5 -69.5 q-59.5 -24 -128.5 -24 q-69 0 -134.5 25 q-65.5 25 -114.5 74 l16 22 q46 -45 107 -68 q61 -23 124 -23 q62 0 114 20.5 q52 20.5 83.5 60 q31.5 39.5 31.5 92.5 q0 72 -55 111.5 q-55 39.5 -156 39.5 l-140 0 l0 30 l140 0 q85 0 133 37 q48 37 48 103 q0 73 -59 115 q-59 42 -147 42 q-51 0 -103.5 -15.5 q-52.5 -15.5 -100.5 -46.5 l-14 28 q51 32 107.5 48.5 q56.5 16.5 110.5 16.5 q66 0 121 -22.5 q55 -22.5 87 -64.5 q32 -42 32 -98 q0 -59 -34 -100 q-34 -41 -95 -57 Z" /><glyph glyph-name="uni0418" unicode="&#x418;" d="M132 700 l34 0 l0 -641 l499 641 l28 0 l0 -700 l-33 0 l0 641 l-500 -641 l-28 0 l0 700 Z" /><glyph glyph-name="uni0419" unicode="&#x419;" d="M132 700 l34 0 l0 -641 l499 641 l28 0 l0 -700 l-33 0 l0 641 l-500 -641 l-28 0 l0 700 ZM410 754 q-65 0 -106.5 31.5 q-41.5 31.5 -42.5 85.5 l29 0 q1 -42 34.5 -67.5 q33.5 -25.5 85.5 -25.5 q52 0 85.5 25.5 q33.5 25.5 34.5 67.5 l29 0 q-1 -54 -43 -85.5 q-42 -31.5 -106 -31.5 Z" /><glyph glyph-name="uni041A" unicode="&#x41a;" d="M342 340 l-176 0 l0 -340 l-34 0 l0 700 l34 0 l0 -329 l176 0 l263 329 l39 0 l-275 -342 l294 -358 l-40 0 l-281 340 Z" /><glyph glyph-name="uni041B" unicode="&#x41b;" d="M645 700 l0 -700 l-33 0 l0 669 l-381 0 l-11 -277 q-5 -143 -23.5 -230 q-18.5 -87 -53.5 -127.5 q-35 -40.5 -90 -40.5 q-19 0 -45 6 l5 31 q17 -4 34 -4 q47 0 76 36.5 q29 36.5 45 116 q16 79.5 21 213.5 l11 307 l445 0 Z" /><glyph glyph-name="uni041C" unicode="&#x41c;" d="M799 0 l-1 631 l-307 -534 l-18 0 l-308 532 l0 -629 l-33 0 l0 700 l28 0 l322 -560 l321 560 l28 0 l1 -700 l-33 0 Z" /><glyph glyph-name="uni041D" unicode="&#x41d;" d="M691 700 l0 -700 l-34 0 l0 340 l-491 0 l0 -340 l-34 0 l0 700 l34 0 l0 -329 l491 0 l0 329 l34 0 Z" /><glyph glyph-name="uni041E" unicode="&#x41e;" d="M427 -4 q-102 0 -184.5 46 q-82.5 46 -129.5 127 q-47 81 -47 181 q0 100 47 181 q47 81 129.5 127 q82.5 46 184.5 46 q102 0 185 -46 q83 -46 130 -127 q47 -81 47 -181 q0 -100 -47 -181 q-47 -81 -130 -127 q-83 -46 -185 -46 ZM427 27 q92 0 167 42 q75 42 118 116 q43 74 43 165 q0 91 -43 165 q-43 74 -118 116 q-75 42 -167 42 q-92 0 -166.5 -42 q-74.5 -42 -117.5 -116 q-43 -74 -43 -165 q0 -91 43 -165 q43 -74 117.5 -116 q74.5 -42 166.5 -42 Z" /><glyph glyph-name="uni041F" unicode="&#x41f;" d="M699 700 l0 -700 l-34 0 l0 669 l-499 0 l0 -669 l-34 0 l0 700 l567 0 Z" /><glyph glyph-name="uni0420" unicode="&#x420;" d="M375 700 q131 0 204.5 -61.5 q73.5 -61.5 73.5 -170.5 q0 -110 -73.5 -171.5 q-73.5 -61.5 -204.5 -61.5 l-209 0 l0 -235 l-34 0 l0 700 l243 0 ZM377 266 q117 0 180 52.5 q63 52.5 63 149.5 q0 96 -63 148.5 q-63 52.5 -180 52.5 l-211 0 l0 -403 l211 0 Z" /><glyph glyph-name="uni0421" unicode="&#x421;" d="M427 -4 q-102 0 -184.5 46 q-82.5 46 -129.5 127 q-47 81 -47 181 q0 100 47 181 q47 81 129.5 127 q82.5 46 184.5 46 q72 0 135 -23.5 q63 -23.5 108 -69.5 l-21 -22 q-87 84 -221 84 q-92 0 -167 -42.5 q-75 -42.5 -118 -116.5 q-43 -74 -43 -164 q0 -90 43 -164 q43 -74 118 -116.5 q75 -42.5 167 -42.5 q133 0 221 85 l21 -22 q-45 -46 -107.5 -70 q-62.5 -24 -135.5 -24 Z" /><glyph glyph-name="uni0422" unicode="&#x422;" d="M555 669 l-256 0 l0 -669 l-34 0 l0 669 l-256 0 l0 31 l546 0 l0 -31 Z" /><glyph glyph-name="uni0423" unicode="&#x423;" d="M646 700 l-326 -606 q-29 -54 -69 -79.5 q-40 -25.5 -84 -25.5 q-36 0 -74 16 l11 28 q33 -14 64 -14 q73 0 121 83 l27 47 l-289 551 l37 0 l271 -519 l275 519 l36 0 Z" /><glyph glyph-name="uni0424" unicode="&#x424;" d="M845 350 q0 -92 -45.5 -159 q-45.5 -67 -130 -103.5 q-84.5 -36.5 -201.5 -38.5 l0 -70 l-33 0 l0 70 q-116 1 -201 37.5 q-85 36.5 -131 103.5 q-46 67 -46 160 q0 93 46 160 q46 67 131 103.5 q85 36.5 201 37.5 l0 70 l33 0 l0 -70 q117 -2 201.5 -38 q84.5 -36 130 -103 q45.5 -67 45.5 -160 ZM468 79 q162 4 253 75 q91 71 91 196 q0 126 -91.5 197.5 q-91.5 71.5 -252.5 74.5 l0 -543 ZM91 350 q0 -126 91.5 -196.5 q91.5 -70.5 252.5 -74.5 l0 543 q-162 -4 -253 -75 q-91 -71 -91 -197 Z" /><glyph glyph-name="uni0425" unicode="&#x425;" d="M89 700 l221 -309 l223 309 l40 0 l-242 -337 l261 -363 l-40 0 l-242 335 l-240 -335 l-40 0 l260 362 l-241 338 l40 0 Z" /><glyph glyph-name="uni0426" unicode="&#x426;" d="M788 31 l0 -203 l-33 0 l0 172 l-623 0 l0 700 l34 0 l0 -669 l473 0 l0 669 l33 0 l0 -669 l116 0 Z" /><glyph glyph-name="uni0427" unicode="&#x427;" d="M591 700 l0 -700 l-34 0 l0 308 q-129 -57 -243 -57 q-116 0 -181.5 56.5 q-65.5 56.5 -65.5 156.5 l0 236 l34 0 l0 -234 q0 -86 57 -135 q57 -49 157 -49 q113 0 242 59 l0 359 l34 0 Z" /><glyph glyph-name="uni0428" unicode="&#x428;" d="M960 700 l0 -700 l-828 0 l0 700 l34 0 l0 -669 l364 0 l0 669 l33 0 l0 -669 l364 0 l0 669 l33 0 Z" /><glyph glyph-name="uni0429" unicode="&#x429;" d="M960 700 l0 -700 l-828 0 l0 700 l34 0 l0 -669 l364 0 l0 669 l33 0 l0 -669 l364 0 l0 669 l33 0 ZM1076 31 l0 -194 l-32 0 l0 163 l-117 0 l0 31 l149 0 Z" /><glyph glyph-name="uni042A" unicode="&#x42a;" d="M508 439 q123 0 186.5 -55 q63.5 -55 63.5 -161 q0 -109 -67.5 -166 q-67.5 -57 -195.5 -57 l-259 0 l0 669 l-227 0 l0 31 l260 0 l0 -261 l239 0 ZM498 29 q112 0 169 49 q57 49 57 144 q0 95 -56 141.5 q-56 46.5 -170 46.5 l-229 0 l0 -381 l229 0 Z" /><glyph glyph-name="uni042B" unicode="&#x42b;" d="M404 439 q123 0 187 -55 q64 -55 64 -161 q0 -109 -67.5 -166 q-67.5 -57 -195.5 -57 l-260 0 l0 700 l34 0 l0 -261 l238 0 ZM395 29 q112 0 169 49 q57 49 57 144 q0 95 -56 141.5 q-56 46.5 -170 46.5 l-229 0 l0 -381 l229 0 ZM790 700 l34 0 l0 -700 l-34 0 l0 700 Z" /><glyph glyph-name="uni042C" unicode="&#x42c;" d="M404 439 q123 0 187 -55 q64 -55 64 -161 q0 -109 -67.5 -166 q-67.5 -57 -195.5 -57 l-260 0 l0 700 l34 0 l0 -261 l238 0 ZM395 29 q112 0 169 49 q57 49 57 144 q0 95 -56 141.5 q-56 46.5 -170 46.5 l-229 0 l0 -381 l229 0 Z" /><glyph glyph-name="uni042D" unicode="&#x42d;" d="M295 704 q96 0 174 -46 q78 -46 123 -127 q45 -81 45 -181 q0 -100 -45 -181 q-45 -81 -123 -127 q-78 -46 -174 -46 q-76 0 -141.5 23.5 q-65.5 23.5 -110.5 69.5 l21 22 q87 -84 230 -84 q85 0 155.5 41.5 q70.5 41.5 111.5 113.5 q41 72 42 161 l-394 0 l0 30 l393 0 q-5 85 -46.5 153.5 q-41.5 68.5 -110 107.5 q-68.5 39 -151.5 39 q-142 0 -230 -85 l-21 22 q45 46 110.5 70 q65.5 24 141.5 24 Z" /><glyph glyph-name="uni042E" unicode="&#x42e;" d="M673 704 q96 0 174 -46 q78 -46 122.5 -127 q44.5 -81 44.5 -181 q0 -100 -44.5 -181 q-44.5 -81 -122.5 -127 q-78 -46 -174 -46 q-94 0 -171 44.5 q-77 44.5 -122 123 q-45 78.5 -47 176.5 l-167 0 l0 -340 l-34 0 l0 700 l34 0 l0 -329 l168 0 q4 95 49.5 171 q45.5 76 121.5 119 q76 43 168 43 ZM673 27 q86 0 156.5 42 q70.5 42 111 116 q40.5 74 40.5 165 q0 91 -40.5 165 q-40.5 74 -111 116 q-70.5 42 -156.5 42 q-85 0 -155 -42 q-70 -42 -110.5 -116 q-40.5 -74 -40.5 -165 q0 -91 40.5 -165 q40.5 -74 110.5 -116 q70 -42 155 -42 Z" /><glyph glyph-name="uni042F" unicode="&#x42f;" d="M600 700 l0 -700 l-33 0 l0 226 l-234 0 q-33 0 -57 4 l-161 -230 l-37 0 l166 236 q-80 20 -122.5 78 q-42.5 58 -42.5 146 q0 115 71 177.5 q71 62.5 193 62.5 l257 0 ZM113 460 q0 -98 57 -151 q57 -53 166 -53 l231 0 l0 413 l-221 0 q-112 0 -172.5 -53.5 q-60.5 -53.5 -60.5 -155.5 Z" /><glyph glyph-name="uni0430" unicode="&#x430;" d="M281 523 q93 0 142.5 -48 q49.5 -48 49.5 -139 l0 -336 l-32 0 l0 104 q-25 -50 -74.5 -78.5 q-49.5 -28.5 -118.5 -28.5 q-87 0 -136.5 40 q-49.5 40 -49.5 106 q0 63 45 102.5 q45 39.5 144 39.5 l189 0 l0 51 q0 77 -40.5 117 q-40.5 40 -119.5 40 q-55 0 -103 -19 q-48 -19 -82 -51 l-18 24 q38 36 91.5 56 q53.5 20 112.5 20 ZM250 25 q140 0 190 125 l0 108 l-189 0 q-81 0 -118.5 -30.5 q-37.5 -30.5 -37.5 -82.5 q0 -56 41.5 -88 q41.5 -32 113.5 -32 Z" /><glyph glyph-name="uni0431" unicode="&#x431;" d="M346 515 q72 0 128 -32.5 q56 -32.5 87.5 -91 q31.5 -58.5 31.5 -133.5 q0 -76 -32 -135.5 q-32 -59.5 -89 -93 q-57 -33.5 -130 -33.5 q-84 0 -143.5 42.5 q-59.5 42.5 -90 118.5 q-30.5 76 -30.5 176 q0 120 28 197 q28 77 84 120.5 q56 43.5 145 65.5 l227 57 l6 -32 l-218 -53 q-85 -21 -137 -60 q-52 -39 -77.5 -108 q-25.5 -69 -25.5 -179 l0 -2 q22 81 85 128.5 q63 47.5 151 47.5 ZM343 26 q63 0 112.5 29.5 q49.5 29.5 77 82 q27.5 52.5 27.5 120.5 q0 67 -27.5 118.5 q-27.5 51.5 -77 80 q-49.5 28.5 -112.5 28.5 q-63 0 -113 -28.5 q-50 -28.5 -77.5 -80 q-27.5 -51.5 -27.5 -118.5 q0 -68 28 -120.5 q28 -52.5 77.5 -82 q49.5 -29.5 112.5 -29.5 Z" /><glyph glyph-name="uni0432" unicode="&#x432;" d="M404 267 q119 -19 119 -129 q0 -68 -48.5 -103 q-48.5 -35 -146.5 -35 l-215 0 l0 519 l210 0 q85 0 133 -34 q48 -34 48 -98 q0 -47 -26.5 -77.5 q-26.5 -30.5 -73.5 -42.5 ZM146 277 l177 0 q71 0 109.5 27 q38.5 27 38.5 80 q0 53 -38.5 80 q-38.5 27 -109.5 27 l-177 0 l0 -214 ZM329 28 q80 0 120.5 27 q40.5 27 40.5 84 q0 57 -36.5 84 q-36.5 27 -114.5 27 l-193 0 l0 -222 l183 0 Z" /><glyph glyph-name="uni0433" unicode="&#x433;" d="M458 489 l-312 0 l0 -489 l-33 0 l0 519 l345 0 l0 -30 Z" /><glyph glyph-name="uni0434" unicode="&#x434;" d="M587 29 l0 -161 l-32 0 l0 132 l-512 0 l0 -132 l-32 0 l0 161 l31 0 q38 2 59 46.5 q21 44.5 29.5 110 q8.5 65.5 13.5 163.5 l8 170 l350 0 l0 -490 l85 0 ZM175 348 q-5 -125 -21.5 -209 q-16.5 -84 -57.5 -110 l373 0 l0 460 l-287 0 l-7 -141 Z" /><glyph glyph-name="uni0435" unicode="&#x435;" d="M547 255 l-455 0 q1 -66 31 -118 q30 -52 82.5 -81 q52.5 -29 117.5 -29 q53 0 98 19.5 q45 19.5 74 57.5 l21 -22 q-35 -41 -85 -63 q-50 -22 -108 -22 q-76 0 -135.5 33.5 q-59.5 33.5 -93.5 93.5 q-34 60 -34 136 q0 76 31.5 136 q31.5 60 87.5 93.5 q56 33.5 125 33.5 q68 0 123.5 -33 q55.5 -33 87.5 -92 q32 -59 32 -134 l0 -9 ZM304 493 q-58 0 -105 -27 q-47 -27 -75 -75.5 q-28 -48.5 -31 -108.5 l423 0 q-4 60 -32.5 108.5 q-28.5 48.5 -75 75.5 q-46.5 27 -104.5 27 Z" /><glyph glyph-name="uni0436" unicode="&#x436;" d="M541 249 l-130 0 l0 -249 l-32 0 l0 249 l-129 0 l-185 -249 l-40 0 l198 265 l-183 254 l38 0 l172 -241 l129 0 l0 241 l32 0 l0 -241 l130 0 l172 241 l38 0 l-183 -254 l198 -265 l-40 0 l-185 249 Z" /><glyph glyph-name="uni0437" unicode="&#x437;" d="M321 272 q61 -11 94 -43.5 q33 -32.5 33 -81.5 q0 -45 -29.5 -79.5 q-29.5 -34.5 -78 -53 q-48.5 -18.5 -104.5 -19.5 q-58 0 -111.5 18 q-53.5 18 -92.5 54 l16 23 q35 -33 85 -49.5 q50 -16.5 103 -16.5 q74 1 126 35.5 q52 34.5 52 90.5 q0 50 -45.5 78 q-45.5 28 -123.5 28 l-79 0 l0 28 l79 0 q67 0 110.5 27 q43.5 27 43.5 72 q0 54 -47.5 83 q-47.5 29 -118.5 29 q-86 0 -165 -46 l-12 27 q43 24 89.5 36.5 q46.5 12.5 90.5 12.5 q85 0 141 -37 q56 -37 56 -101 q0 -42 -30.5 -72.5 q-30.5 -30.5 -81.5 -42.5 Z" /><glyph glyph-name="uni0438" unicode="&#x438;" d="M113 519 l33 0 l0 -466 l390 466 l29 0 l0 -519 l-33 0 l0 466 l-391 -466 l-28 0 l0 519 Z" /><glyph glyph-name="uni0439" unicode="&#x439;" d="M113 519 l33 0 l0 -466 l390 466 l29 0 l0 -519 l-33 0 l0 466 l-391 -466 l-28 0 l0 519 ZM338 603 q-58 0 -96.5 31.5 q-38.5 31.5 -39.5 85.5 l26 0 q1 -41 32.5 -66.5 q31.5 -25.5 77.5 -25.5 q46 0 77 25.5 q31 25.5 32 66.5 l27 0 q-1 -54 -39.5 -85.5 q-38.5 -31.5 -96.5 -31.5 Z" /><glyph glyph-name="uni043A" unicode="&#x43a;" d="M279 249 l-133 0 l0 -249 l-33 0 l0 519 l33 0 l0 -241 l134 0 l205 241 l38 0 l-217 -254 l233 -265 l-40 0 l-220 249 Z" /><glyph glyph-name="uni043B" unicode="&#x43b;" d="M505 519 l0 -519 l-33 0 l0 489 l-289 0 l-7 -148 q-6 -109 -17.5 -181.5 q-11.5 -72.5 -39 -118.5 q-27.5 -46 -77.5 -46 q-9 0 -37 6 l4 29 q16 -4 25 -4 q42 0 65 43.5 q23 43.5 31.5 109 q8.5 65.5 13.5 167.5 l9 173 l352 0 Z" /><glyph glyph-name="uni043C" unicode="&#x43c;" d="M666 519 l0 -519 l-31 0 l0 462 l-238 -392 l-16 0 l-236 389 l0 -459 l-32 0 l0 519 l31 0 l246 -409 l246 409 l30 0 Z" /><glyph glyph-name="uni043D" unicode="&#x43d;" d="M113 519 l33 0 l0 -243 l374 0 l0 243 l33 0 l0 -519 l-33 0 l0 247 l-374 0 l0 -247 l-33 0 l0 519 Z" /><glyph glyph-name="uni043E" unicode="&#x43e;" d="M314 -3 q-72 0 -130.5 33.5 q-58.5 33.5 -91.5 93.5 q-33 60 -33 136 q0 76 33 136 q33 60 91.5 93.5 q58.5 33.5 130.5 33.5 q73 0 131 -33.5 q58 -33.5 91 -93.5 q33 -60 33 -136 q0 -76 -33 -136 q-33 -60 -91 -93.5 q-58 -33.5 -131 -33.5 ZM314 27 q63 0 113.5 29.5 q50.5 29.5 79.5 82.5 q29 53 29 121 q0 68 -29 120.5 q-29 52.5 -79.5 82 q-50.5 29.5 -113.5 29.5 q-63 0 -113.5 -29.5 q-50.5 -29.5 -79.5 -82 q-29 -52.5 -29 -120.5 q0 -68 29 -121 q29 -53 79.5 -82.5 q50.5 -29.5 113.5 -29.5 Z" /><glyph glyph-name="uni043F" unicode="&#x43f;" d="M557 519 l0 -519 l-33 0 l0 489 l-378 0 l0 -489 l-33 0 l0 519 l444 0 Z" /><glyph glyph-name="uni0440" unicode="&#x440;" d="M370 523 q71 0 129 -33.5 q58 -33.5 91.5 -94 q33.5 -60.5 33.5 -136.5 q0 -76 -33.5 -135.5 q-33.5 -59.5 -91.5 -93 q-58 -33.5 -129 -33.5 q-75 0 -134.5 38 q-59.5 38 -88.5 104 l0 -333 l-33 0 l0 713 l32 0 l0 -142 q29 68 88.5 107 q59.5 39 135.5 39 ZM369 27 q63 0 113.5 29.5 q50.5 29.5 79.5 82 q29 52.5 29 120.5 q0 68 -29 121 q-29 53 -79.5 82.5 q-50.5 29.5 -113.5 29.5 q-63 0 -113.5 -29.5 q-50.5 -29.5 -79.5 -82.5 q-29 -53 -29 -121 q0 -68 29 -120.5 q29 -52.5 79.5 -82 q50.5 -29.5 113.5 -29.5 Z" /><glyph glyph-name="uni0441" unicode="&#x441;" d="M317 -3 q-74 0 -132.5 33.5 q-58.5 33.5 -92 93.5 q-33.5 60 -33.5 136 q0 76 33.5 136 q33.5 60 92 93.5 q58.5 33.5 132.5 33.5 q59 0 109.5 -22.5 q50.5 -22.5 82.5 -66.5 l-25 -21 q-28 39 -71.5 59 q-43.5 20 -95.5 20 q-64 0 -115.5 -29.5 q-51.5 -29.5 -80.5 -82 q-29 -52.5 -29 -120.5 q0 -68 29 -121 q29 -53 80.5 -82.5 q51.5 -29.5 115.5 -29.5 q52 0 95.5 20 q43.5 20 71.5 59 l25 -20 q-32 -44 -82.5 -66.5 q-50.5 -22.5 -109.5 -22.5 Z" /><glyph glyph-name="uni0442" unicode="&#x442;" d="M445 489 l-207 0 l0 -489 l-33 0 l0 489 l-208 0 l0 30 l448 0 l0 -30 Z" /><glyph glyph-name="uni0443" unicode="&#x443;" d="M521 519 l-272 -597 q-29 -65 -66 -92 q-37 -27 -87 -27 q-35 0 -65 11.5 q-30 11.5 -51 34.5 l19 26 q21 -23 44 -33 q23 -10 53 -10 q39 0 67.5 22 q28.5 22 53.5 76 l33 71 l-236 518 l36 0 l218 -481 l218 481 l35 0 Z" /><glyph glyph-name="uni0444" unicode="&#x444;" d="M696 260 q0 -122 -79.5 -191 q-79.5 -69 -223.5 -73 l0 -190 l-33 0 l0 190 q-144 3 -223.5 72.5 q-79.5 69.5 -79.5 191.5 q0 121 79.5 190 q79.5 69 223.5 73 l0 219 l33 0 l0 -219 q144 -5 223.5 -73.5 q79.5 -68.5 79.5 -189.5 ZM90 260 q0 -107 70.5 -168.5 q70.5 -61.5 199.5 -65.5 l0 466 q-130 -4 -200 -64.5 q-70 -60.5 -70 -167.5 ZM393 26 q129 4 200 65 q71 61 71 169 q0 107 -71 167.5 q-71 60.5 -200 64.5 l0 -466 Z" /><glyph glyph-name="uni0445" unicode="&#x445;" d="M439 0 l-188 244 l-188 -244 l-39 0 l208 268 l-197 251 l39 0 l177 -227 l176 227 l38 0 l-195 -251 l210 -268 l-41 0 Z" /><glyph glyph-name="uni0446" unicode="&#x446;" d="M634 29 l0 -168 l-32 0 l0 139 l-489 0 l0 519 l33 0 l0 -490 l367 0 l0 490 l33 0 l0 -490 l88 0 Z" /><glyph glyph-name="uni0447" unicode="&#x447;" d="M471 519 l0 -519 l-33 0 l0 228 q-99 -43 -192 -43 q-89 0 -141 41 q-52 41 -52 119 l0 174 l33 0 l0 -173 q0 -64 44 -98.5 q44 -34.5 119 -34.5 q86 0 189 45 l0 261 l33 0 Z" /><glyph glyph-name="uni0448" unicode="&#x448;" d="M797 519 l0 -519 l-684 0 l0 519 l33 0 l0 -490 l293 0 l0 490 l33 0 l0 -490 l292 0 l0 490 l33 0 Z" /><glyph glyph-name="uni0449" unicode="&#x449;" d="M797 519 l0 -519 l-684 0 l0 519 l33 0 l0 -490 l293 0 l0 490 l33 0 l0 -490 l292 0 l0 490 l33 0 ZM879 29 l0 -149 l-32 0 l0 120 l-87 0 l0 29 l119 0 Z" /><glyph glyph-name="uni044A" unicode="&#x44a;" d="M361 328 q94 0 143 -41.5 q49 -41.5 49 -120.5 q0 -82 -51.5 -124 q-51.5 -42 -150.5 -42 l-185 0 l0 489 l-169 0 l0 30 l202 0 l0 -191 l162 0 ZM353 27 q166 0 166 139 q0 135 -166 135 l-154 0 l0 -274 l154 0 Z" /><glyph glyph-name="uni044B" unicode="&#x44b;" d="M308 326 q96 -2 146 -42.5 q50 -40.5 50 -118.5 q0 -83 -53 -125.5 q-53 -42.5 -153 -41.5 l-185 2 l0 519 l33 0 l0 -191 l162 -2 ZM605 519 l33 0 l0 -519 l-33 0 l0 519 ZM298 26 q85 -1 129 34 q44 35 44 104 q0 68 -43 100.5 q-43 32.5 -130 34.5 l-152 2 l0 -274 l152 -1 Z" /><glyph glyph-name="uni044C" unicode="&#x44c;" d="M309 326 q96 -2 146 -42.5 q50 -40.5 50 -118.5 q0 -83 -52.5 -125.5 q-52.5 -42.5 -153.5 -41.5 l-186 2 l0 519 l33 0 l0 -191 l163 -2 ZM299 26 q86 -1 129.5 34 q43.5 35 43.5 104 q0 68 -42.5 100.5 q-42.5 32.5 -130.5 34.5 l-153 2 l0 -274 l153 -1 Z" /><glyph glyph-name="uni044D" unicode="&#x44d;" d="M240 522 q76 0 137.5 -34 q61.5 -34 96.5 -94.5 q35 -60.5 35 -134.5 q0 -74 -35.5 -134 q-35.5 -60 -97 -94.5 q-61.5 -34.5 -136.5 -34.5 q-60 0 -112 18 q-52 18 -87 53 l19 21 q68 -62 180 -62 q65 0 118.5 29.5 q53.5 29.5 85 80.5 q31.5 51 33.5 115 l-305 0 l0 27 l304 0 q-4 61 -36 110.5 q-32 49.5 -84.5 77.5 q-52.5 28 -115.5 28 q-110 0 -180 -64 l-19 21 q35 35 87 53 q52 18 112 18 Z" /><glyph glyph-name="uni044E" unicode="&#x44e;" d="M539 523 q71 0 128 -33.5 q57 -33.5 89.5 -93.5 q32.5 -60 32.5 -136 q0 -76 -32.5 -136 q-32.5 -60 -89.5 -93.5 q-57 -33.5 -128 -33.5 q-69 0 -125 32 q-56 32 -89 89 q-33 57 -36 130 l-143 0 l0 -248 l-33 0 l0 519 l33 0 l0 -240 l144 0 q4 71 37 126.5 q33 55.5 88.5 86.5 q55.5 31 123.5 31 ZM539 27 q62 0 111.5 29.5 q49.5 29.5 77.5 82.5 q28 53 28 121 q0 68 -28 120.5 q-28 52.5 -77.5 82 q-49.5 29.5 -111.5 29.5 q-62 0 -111.5 -29.5 q-49.5 -29.5 -77.5 -82 q-28 -52.5 -28 -120.5 q0 -68 28 -121 q28 -53 77.5 -82.5 q49.5 -29.5 111.5 -29.5 Z" /><glyph glyph-name="uni044F" unicode="&#x44f;" d="M484 519 l0 -519 l-31 0 l0 185 l-182 0 q-21 0 -31 1 l-135 -186 l-36 0 l138 190 q-66 13 -101.5 53 q-35.5 40 -35.5 106 q0 85 55.5 127.5 q55.5 42.5 153.5 42.5 l205 0 ZM104 348 q0 -137 171 -137 l178 0 l0 278 l-171 0 q-178 0 -178 -141 Z" /><glyph glyph-name="uni0451" unicode="&#x451;" d="M547 255 l-455 0 q1 -66 31 -118 q30 -52 82.5 -81 q52.5 -29 117.5 -29 q53 0 98 19.5 q45 19.5 74 57.5 l21 -22 q-35 -41 -85 -63 q-50 -22 -108 -22 q-76 0 -135.5 33.5 q-59.5 33.5 -93.5 93.5 q-34 60 -34 136 q0 76 31.5 136 q31.5 60 87.5 93.5 q56 33.5 125 33.5 q68 0 123.5 -33 q55.5 -33 87.5 -92 q32 -59 32 -134 l0 -9 ZM304 493 q-58 0 -105 -27 q-47 -27 -75 -75.5 q-28 -48.5 -31 -108.5 l423 0 q-4 60 -32.5 108.5 q-28.5 48.5 -75 75.5 q-46.5 27 -104.5 27 ZM220 638 q-12 0 -21 9 q-9 9 -9 21 q0 13 9 22 q9 9 21 9 q13 0 21.5 -9 q8.5 -9 8.5 -22 q0 -12 -8.5 -21 q-8.5 -9 -21.5 -9 ZM388 638 q-13 0 -21.5 9 q-8.5 9 -8.5 21 q0 13 8.5 22 q8.5 9 21.5 9 q12 0 21 -9 q9 -9 9 -22 q0 -12 -9 -21 q-9 -9 -21 -9 Z" /><glyph glyph-name="endash" unicode="&#x2013;" d="M0 280 l500 0 l0 -27 l-500 0 l0 27 Z" /><glyph glyph-name="emdash" unicode="&#x2014;" d="M0 280 l1000 0 l0 -27 l-1000 0 l0 27 Z" /><glyph glyph-name="quoteleft" unicode="&#x2018;" d="M99 604 q13 -2 21 -11.5 q8 -9.5 8 -21.5 q0 -14 -9.5 -23.5 q-9.5 -9.5 -23.5 -9.5 q-14 0 -23.5 10 q-9.5 10 -9.5 23 q0 14 6 36 l36 135 l25 0 l-30 -138 Z" /><glyph glyph-name="quoteright" unicode="&#x2019;" d="M95 745 q14 0 23.5 -10 q9.5 -10 9.5 -23 q0 -12 -6 -36 l-36 -135 l-26 0 l31 139 q-13 1 -21 10.5 q-8 9.5 -8 21.5 q0 14 9.5 23.5 q9.5 9.5 23.5 9.5 Z" /><glyph glyph-name="quotedblleft" unicode="&#x201c;" d="M99 604 q13 -2 21 -11.5 q8 -9.5 8 -21.5 q0 -14 -9.5 -23.5 q-9.5 -9.5 -23.5 -9.5 q-14 0 -23.5 10 q-9.5 10 -9.5 23 q0 14 6 36 l36 135 l25 0 l-30 -138 ZM239 604 q13 -2 21 -11.5 q8 -9.5 8 -21.5 q0 -14 -9.5 -23.5 q-9.5 -9.5 -23.5 -9.5 q-14 0 -23.5 10 q-9.5 10 -9.5 23 q0 14 6 36 l36 135 l25 0 l-30 -138 Z" /><glyph glyph-name="quotedblright" unicode="&#x201d;" d="M95 745 q14 0 23.5 -10 q9.5 -10 9.5 -23 q0 -12 -6 -36 l-36 -135 l-26 0 l31 139 q-13 1 -21 10.5 q-8 9.5 -8 21.5 q0 14 9.5 23.5 q9.5 9.5 23.5 9.5 ZM235 745 q14 0 23.5 -10 q9.5 -10 9.5 -23 q0 -12 -6 -36 l-36 -135 l-26 0 l31 139 q-13 1 -21 10.5 q-8 9.5 -8 21.5 q0 14 9.5 23.5 q9.5 9.5 23.5 9.5 Z" /><glyph glyph-name="quotedblbase" unicode="&#x201e;" d="M95 63 q14 0 23.5 -10 q9.5 -10 9.5 -23 q0 -9 -2.5 -19.5 q-2.5 -10.5 -3.5 -17.5 l-36 -134 l-26 0 l31 138 q-13 2 -21 11 q-8 9 -8 22 q0 14 9.5 23.5 q9.5 9.5 23.5 9.5 ZM235 63 q14 0 23.5 -10 q9.5 -10 9.5 -23 q0 -9 -2.5 -19.5 q-2.5 -10.5 -3.5 -17.5 l-36 -134 l-26 0 l31 138 q-13 2 -21 11 q-8 9 -8 22 q0 14 9.5 23.5 q9.5 9.5 23.5 9.5 Z" /><glyph glyph-name="bullet" unicode="&#x2022;" d="M134 218 q-21 0 -36.5 15 q-15.5 15 -15.5 37 q0 22 15.5 37 q15.5 15 36.5 15 q21 0 36.5 -15 q15.5 -15 15.5 -37 q0 -22 -15.5 -37 q-15.5 -15 -36.5 -15 Z" /><glyph glyph-name="ellipsis" unicode="&#x2026;" d="M95 -3 q-14 0 -23.5 9.5 q-9.5 9.5 -9.5 23.5 q0 14 10 23.5 q10 9.5 23 9.5 q14 0 23.5 -9.5 q9.5 -9.5 9.5 -23.5 q0 -14 -9.5 -23.5 q-9.5 -9.5 -23.5 -9.5 ZM290 -3 q-14 0 -23.5 9.5 q-9.5 9.5 -9.5 23.5 q0 14 10 23.5 q10 9.5 23 9.5 q14 0 23.5 -9.5 q9.5 -9.5 9.5 -23.5 q0 -14 -9.5 -23.5 q-9.5 -9.5 -23.5 -9.5 ZM484 -3 q-14 0 -23.5 9.5 q-9.5 9.5 -9.5 23.5 q0 14 10 23.5 q10 9.5 23 9.5 q14 0 23.5 -9.5 q9.5 -9.5 9.5 -23.5 q0 -14 -9.5 -23.5 q-9.5 -9.5 -23.5 -9.5 Z" /><glyph glyph-name="uni2116" unicode="&#x2116;" d="M964 390 q-47 0 -84.5 20 q-37.5 20 -59 56 q-21.5 36 -21.5 81 q0 45 21.5 80.5 q21.5 35.5 59 56 q37.5 20.5 84.5 20.5 q47 0 85 -20 q38 -20 59.5 -56 q21.5 -36 21.5 -81 q0 -69 -47 -113 q-47 -44 -119 -44 ZM653 700 l34 0 l0 -700 l-28 0 l-497 638 l0 -638 l-34 0 l0 700 l28 0 l497 -638 l0 638 ZM964 679 q-60 0 -99 -37 q-39 -37 -39 -95 q0 -59 39 -96 q39 -37 99 -37 q60 0 99.5 37 q39.5 37 39.5 96 q0 58 -39.5 95 q-39.5 37 -99.5 37 ZM819 293 l291 0 l0 -27 l-291 0 l0 27 Z" /><glyph glyph-name="trademark" unicode="&#x2122;" d="M4 700 l354 0 l0 -25 l-162 0 l0 -390 l-29 0 l0 390 l-163 0 l0 25 ZM882 700 l0 -415 l-28 0 l0 362 l-192 -306 l-15 0 l-193 303 l0 -359 l-27 0 l0 415 l24 0 l203 -324 l203 324 l25 0 Z" /></font>
</defs>
</svg>
