<?xml version="1.0" standalone="no"?><!DOCTYPE svg PUBLIC "-//W3C//DTD SVG 1.1//EN" "http://www.w3.org/Graphics/SVG/1.1/DTD/svg11.dtd" ><svg xmlns="http://www.w3.org/2000/svg"><metadata></metadata><defs><font id="7.200;ULA ;Montserrat-SemiBold" horiz-adv-x="1210"><font-face font-family="Montserrat SemiBold" font-weight="600" font-stretch="normal" units-per-em="1000" panose-1="0 0 7 0 0 0 0 0 0 0" ascent="968" descent="-251" x-height="0" bbox="-93 -204 1164 892" underline-thickness="50" underline-position="-75" unicode-range="U+0020-2122" /><missing-glyph horiz-adv-x="587" d="M40 700 l507 0 l0 -700 l-507 0 l0 700 ZM467 70 l0 560 l-347 0 l0 -560 l347 0 Z" /><glyph glyph-name="space" unicode=" " d="" /><glyph glyph-name="exclam" unicode="!" d="M66 700 l148 0 l-25 -468 l-99 0 l-24 468 ZM140 -7 q-35 0 -58 22.5 q-23 22.5 -23 55.5 q0 33 23 55 q23 22 58 22 q34 0 56.5 -22 q22.5 -22 22.5 -55 q0 -33 -22.5 -55.5 q-22.5 -22.5 -56.5 -22.5 Z" /><glyph glyph-name="quotedbl" unicode="&quot;" d="M56 700 l108 0 l-9 -277 l-91 0 l-8 277 ZM249 700 l108 0 l-9 -277 l-91 0 l-8 277 Z" /><glyph glyph-name="numbersign" unicode="#" d="M520 261 l135 0 l0 -91 l-146 0 l-21 -170 l-91 0 l21 170 l-169 0 l-21 -170 l-91 0 l21 170 l-135 0 l0 91 l146 0 l23 178 l-135 0 l0 91 l146 0 l21 170 l91 0 l-21 -170 l168 0 l21 170 l91 0 l-21 -170 l134 0 l1 -91 l-146 0 l-22 -178 ZM429 261 l22 178 l-168 0 l-23 -178 l169 0 Z" /><glyph glyph-name="dollar" unicode="$" d="M594 198 q0 -81 -59.5 -137.5 q-59.5 -56.5 -172.5 -68.5 l0 -112 l-82 0 l0 111 q-74 5 -140 27 q-66 22 -105 56 l45 101 q37 -30 90 -50.5 q53 -20.5 110 -25.5 l0 200 q-71 17 -118.5 37.5 q-47.5 20.5 -79.5 60 q-32 39.5 -32 104.5 q0 81 59 138 q59 57 171 68 l0 113 l82 0 l0 -111 q56 -3 109.5 -19 q53.5 -16 93.5 -42 l-41 -101 q-76 44 -162 54 l0 -202 q72 -17 119.5 -37 q47.5 -20 80 -59.5 q32.5 -39.5 32.5 -104.5 ZM179 507 q0 -33 26 -53 q26 -20 75 -34 l0 178 q-51 -8 -76 -32 q-25 -24 -25 -59 ZM362 101 q53 8 78.5 31 q25.5 23 25.5 57 q0 34 -27 54.5 q-27 20.5 -77 34.5 l0 -177 Z" /><glyph glyph-name="percent" unicode="%" d="M200 323 q-75 0 -121 53 q-46 53 -46 139 q0 86 46 139 q46 53 121 53 q75 0 121.5 -52.5 q46.5 -52.5 46.5 -139.5 q0 -87 -46.5 -139.5 q-46.5 -52.5 -121.5 -52.5 ZM620 700 l98 0 l-478 -700 l-98 0 l478 700 ZM200 393 q41 0 63.5 32 q22.5 32 22.5 90 q0 58 -22.5 90 q-22.5 32 -63.5 32 q-39 0 -62.5 -32.5 q-23.5 -32.5 -23.5 -89.5 q0 -57 23.5 -89.5 q23.5 -32.5 62.5 -32.5 ZM659 -7 q-75 0 -121 53 q-46 53 -46 139 q0 86 46 139 q46 53 121 53 q75 0 121.5 -53 q46.5 -53 46.5 -139 q0 -86 -46.5 -139 q-46.5 -53 -121.5 -53 ZM659 63 q40 0 63 32.5 q23 32.5 23 89.5 q0 57 -23 89.5 q-23 32.5 -63 32.5 q-40 0 -63 -32 q-23 -32 -23 -90 q0 -58 23 -90 q23 -32 63 -32 Z" /><glyph glyph-name="ampersand" unicode="&amp;" d="M619 -11 l-88 85 q-98 -84 -235 -84 q-73 0 -131 24 q-58 24 -91 66.5 q-33 42.5 -33 96.5 q0 65 38 114.5 q38 49.5 124 97.5 q-42 42 -60 78.5 q-18 36.5 -18 75.5 q0 74 55.5 119.5 q55.5 45.5 147.5 45.5 q85 0 136 -41.5 q51 -41.5 51 -112.5 q0 -54 -33.5 -96 q-33.5 -42 -109.5 -85 l151 -144 q25 49 39 118 l101 -33 q-20 -93 -63 -160 l88 -84 l-69 -81 ZM328 619 q-41 0 -65 -20.5 q-24 -20.5 -24 -53.5 q0 -24 13 -45.5 q13 -21.5 50 -58.5 q60 33 83.5 57.5 q23.5 24.5 23.5 53.5 q0 31 -21.5 49 q-21.5 18 -59.5 18 ZM305 92 q87 0 152 53 l-185 177 q-60 -33 -84.5 -63.5 q-24.5 -30.5 -24.5 -68.5 q0 -44 39 -71 q39 -27 103 -27 Z" /><glyph glyph-name="quotesingle" unicode="&#39;" d="M56 700 l108 0 l-9 -277 l-91 0 l-8 277 Z" /><glyph glyph-name="parenleft" unicode="(" d="M206 -194 q-59 91 -90.5 211 q-31.5 120 -31.5 257 q0 137 31.5 257.5 q31.5 120.5 90.5 210.5 l119 0 q-61 -108 -89.5 -222.5 q-28.5 -114.5 -28.5 -245.5 q0 -131 28.5 -245.5 q28.5 -114.5 89.5 -222.5 l-119 0 Z" /><glyph glyph-name="parenright" unicode=")" d="M22 -194 q61 108 90 223 q29 115 29 245 q0 130 -29 245 q-29 115 -90 223 l119 0 q59 -89 90.5 -209.5 q31.5 -120.5 31.5 -258.5 q0 -138 -31.5 -257.5 q-31.5 -119.5 -90.5 -210.5 l-119 0 Z" /><glyph glyph-name="asterisk" unicode="*" d="M286 550 l114 -63 l-39 -68 l-116 68 l1 -129 l-76 0 l1 128 l-115 -67 l-40 68 l115 63 l-115 63 l40 69 l115 -68 l-1 128 l76 0 l-1 -129 l116 69 l39 -69 l-114 -63 Z" /><glyph glyph-name="plus" unicode="+" d="M526 300 l-177 0 l0 -175 l-107 0 l0 175 l-177 0 l0 100 l177 0 l0 175 l107 0 l0 -175 l177 0 l0 -100 Z" /><glyph glyph-name="comma" unicode="," d="M123 159 q35 0 58 -23 q23 -23 23 -60 q0 -16 -4.5 -33.5 q-4.5 -17.5 -18.5 -52.5 l-51 -141 l-81 0 l40 153 q-22 9 -34.5 28.5 q-12.5 19.5 -12.5 45.5 q0 37 23 60 q23 23 58 23 Z" /><glyph glyph-name="hyphen" unicode="-" d="M55 330 l275 0 l0 -104 l-275 0 l0 104 Z" /><glyph glyph-name="period" unicode="." d="M122 -7 q-34 0 -58 23.5 q-24 23.5 -24 59.5 q0 37 23.5 60 q23.5 23 58.5 23 q35 0 58.5 -23 q23.5 -23 23.5 -60 q0 -36 -24 -59.5 q-24 -23.5 -58 -23.5 Z" /><glyph glyph-name="slash" unicode="/" d="M300 842 l112 0 l-330 -942 l-112 0 l330 942 Z" /><glyph glyph-name="zero" unicode="0" d="M336 -10 q-84 0 -150 42.5 q-66 42.5 -104 124 q-38 81.5 -38 193.5 q0 112 38 193.5 q38 81.5 104 124 q66 42.5 150 42.5 q84 0 150.5 -42.5 q66.5 -42.5 104.5 -124 q38 -81.5 38 -193.5 q0 -112 -38 -193.5 q-38 -81.5 -104.5 -124 q-66.5 -42.5 -150.5 -42.5 ZM336 103 q75 0 118.5 62 q43.5 62 43.5 185 q0 123 -43.5 185 q-43.5 62 -118.5 62 q-74 0 -117.5 -62 q-43.5 -62 -43.5 -185 q0 -123 43.5 -185 q43.5 -62 117.5 -62 Z" /><glyph glyph-name="one" unicode="1" d="M286 700 l0 -700 l-130 0 l0 591 l-148 0 l0 109 l278 0 Z" /><glyph glyph-name="two" unicode="2" d="M551 110 l0 -110 l-516 0 l0 87 l278 264 q47 45 63.5 78.5 q16.5 33.5 16.5 66.5 q0 49 -33 75 q-33 26 -97 26 q-107 0 -164 -73 l-91 70 q41 55 110.5 85.5 q69.5 30.5 155.5 30.5 q114 0 182 -54 q68 -54 68 -147 q0 -57 -24 -107 q-24 -50 -92 -114 l-187 -178 l330 0 Z" /><glyph glyph-name="three" unicode="3" d="M342 411 q97 -12 148 -66 q51 -54 51 -135 q0 -61 -31 -111 q-31 -50 -93.5 -79.5 q-62.5 -29.5 -152.5 -29.5 q-75 0 -144.5 21.5 q-69.5 21.5 -118.5 59.5 l56 101 q38 -32 92.5 -50.5 q54.5 -18.5 112.5 -18.5 q69 0 108.5 28.5 q39.5 28.5 39.5 77.5 q0 49 -37.5 76.5 q-37.5 27.5 -114.5 27.5 l-64 0 l0 89 l159 189 l-318 0 l0 109 l477 0 l0 -87 l-170 -202 Z" /><glyph glyph-name="four" unicode="4" d="M668 159 l-124 0 l0 -159 l-126 0 l0 159 l-384 0 l0 90 l345 451 l139 0 l-325 -431 l229 0 l0 141 l122 0 l0 -141 l124 0 l0 -110 Z" /><glyph glyph-name="five" unicode="5" d="M263 429 q148 0 219 -57.5 q71 -57.5 71 -156.5 q0 -63 -31 -114 q-31 -51 -93 -81 q-62 -30 -153 -30 q-75 0 -145 21.5 q-70 21.5 -118 59.5 l55 101 q39 -32 93.5 -50.5 q54.5 -18.5 112.5 -18.5 q69 0 108.5 28.5 q39.5 28.5 39.5 78.5 q0 54 -42.5 81.5 q-42.5 27.5 -145.5 27.5 l-169 0 l36 381 l411 0 l0 -109 l-301 0 l-15 -162 l67 0 Z" /><glyph glyph-name="six" unicode="6" d="M362 432 q69 0 124 -26.5 q55 -26.5 86 -75.5 q31 -49 31 -113 q0 -68 -34 -119.5 q-34 -51.5 -92 -79.5 q-58 -28 -130 -28 q-144 0 -223.5 90 q-79.5 90 -79.5 258 q0 118 43 201.5 q43 83.5 120.5 127 q77.5 43.5 179.5 43.5 q54 0 101.5 -11.5 q47.5 -11.5 82.5 -33.5 l-48 -98 q-52 34 -133 34 q-101 0 -158 -62 q-57 -62 -57 -179 l0 -1 q31 36 79 54.5 q48 18.5 108 18.5 ZM340 92 q61 0 99 32.5 q38 32.5 38 86.5 q0 55 -38 87 q-38 32 -102 32 q-63 0 -102.5 -34 q-39.5 -34 -39.5 -86 q0 -51 38.5 -84.5 q38.5 -33.5 106.5 -33.5 Z" /><glyph glyph-name="seven" unicode="7" d="M572 700 l0 -87 l-272 -613 l-139 0 l263 590 l-275 0 l0 -119 l-121 0 l0 229 l544 0 Z" /><glyph glyph-name="eight" unicode="8" d="M498 368 q55 -25 84.5 -67.5 q29.5 -42.5 29.5 -99.5 q0 -64 -35.5 -112 q-35.5 -48 -100.5 -73.5 q-65 -25.5 -151 -25.5 q-86 0 -150.5 25.5 q-64.5 25.5 -99.5 73.5 q-35 48 -35 112 q0 57 29 99.5 q29 42.5 83 67.5 q-42 23 -64.5 60.5 q-22.5 37.5 -22.5 86.5 q0 59 32.5 103 q32.5 44 91.5 68 q59 24 136 24 q78 0 137 -24 q59 -24 92 -68 q33 -44 33 -103 q0 -49 -23 -86 q-23 -37 -66 -61 ZM325 608 q-61 0 -96.5 -26 q-35.5 -26 -35.5 -73 q0 -45 35.5 -71.5 q35.5 -26.5 96.5 -26.5 q62 0 98 26.5 q36 26.5 36 71.5 q0 47 -36.5 73 q-36.5 26 -97.5 26 ZM325 92 q72 0 114 30 q42 30 42 83 q0 52 -42 82 q-42 30 -114 30 q-72 0 -113 -30 q-41 -30 -41 -82 q0 -53 41 -83 q41 -30 113 -30 Z" /><glyph glyph-name="nine" unicode="9" d="M280 710 q144 0 223.5 -90 q79.5 -90 79.5 -258 q0 -118 -43 -201.5 q-43 -83.5 -120.5 -127 q-77.5 -43.5 -179.5 -43.5 q-54 0 -101.5 11.5 q-47.5 11.5 -82.5 33.5 l48 98 q52 -34 133 -34 q101 0 158 62 q57 62 57 179 l0 1 q-31 -36 -79 -54.5 q-48 -18.5 -108 -18.5 q-69 0 -124 26.5 q-55 26.5 -86 75.5 q-31 49 -31 113 q0 68 34 119.5 q34 51.5 92 79.5 q58 28 130 28 ZM290 370 q63 0 102.5 34 q39.5 34 39.5 86 q0 51 -38.5 84.5 q-38.5 33.5 -106.5 33.5 q-61 0 -99 -32.5 q-38 -32.5 -38 -86.5 q0 -55 38 -87 q38 -32 102 -32 Z" /><glyph glyph-name="colon" unicode=":" d="M122 374 q-34 0 -58 23.5 q-24 23.5 -24 59.5 q0 37 23.5 60 q23.5 23 58.5 23 q35 0 58.5 -23 q23.5 -23 23.5 -60 q0 -36 -24 -59.5 q-24 -23.5 -58 -23.5 ZM122 -7 q-34 0 -58 23.5 q-24 23.5 -24 59.5 q0 37 23.5 60 q23.5 23 58.5 23 q35 0 58.5 -23 q23.5 -23 23.5 -60 q0 -36 -24 -59.5 q-24 -23.5 -58 -23.5 Z" /><glyph glyph-name="semicolon" unicode=";" d="M122 374 q-34 0 -58 23.5 q-24 23.5 -24 59.5 q0 37 23.5 60 q23.5 23 58.5 23 q35 0 58.5 -23 q23.5 -23 23.5 -60 q0 -36 -24 -59.5 q-24 -23.5 -58 -23.5 ZM123 159 q35 0 58 -23 q23 -23 23 -60 q0 -16 -4.5 -33.5 q-4.5 -17.5 -18.5 -52.5 l-51 -141 l-81 0 l40 153 q-22 9 -34.5 28.5 q-12.5 19.5 -12.5 45.5 q0 37 23 60 q23 23 58 23 Z" /><glyph glyph-name="less" unicode="&lt;" d="M526 479 l-345 -129 l345 -129 l0 -104 l-461 179 l0 108 l461 179 l0 -104 Z" /><glyph glyph-name="equal" unicode="=" d="M65 521 l461 0 l0 -100 l-461 0 l0 100 ZM65 279 l461 0 l0 -100 l-461 0 l0 100 Z" /><glyph glyph-name="greater" unicode="&gt;" d="M526 404 l0 -108 l-461 -179 l0 104 l345 129 l-345 129 l0 104 l461 -179 Z" /><glyph glyph-name="question" unicode="?" d="M222 232 q0 54 24.5 89.5 q24.5 35.5 71.5 77.5 q36 32 53.5 55.5 q17.5 23.5 17.5 53.5 q0 42 -34 68 q-34 26 -91 26 q-108 0 -163 -77 l-97 63 q43 59 111 90.5 q68 31.5 160 31.5 q112 0 178.5 -48.5 q66.5 -48.5 66.5 -133.5 q0 -41 -13.5 -72 q-13.5 -31 -32.5 -52.5 q-19 -21.5 -50 -49.5 q-38 -34 -56.5 -60 q-18.5 -26 -18.5 -62 l-127 0 ZM286 -7 q-35 0 -57.5 22.5 q-22.5 22.5 -22.5 55.5 q0 33 22.5 55 q22.5 22 57.5 22 q34 0 56.5 -22 q22.5 -22 22.5 -55 q0 -33 -22.5 -55.5 q-22.5 -22.5 -56.5 -22.5 Z" /><glyph glyph-name="at" unicode="@" d="M522 709 q136 0 243 -56 q107 -56 166.5 -156 q59.5 -100 59.5 -226 q0 -130 -51 -203.5 q-51 -73.5 -141 -73.5 q-48 0 -81 22.5 q-33 22.5 -46 64.5 q-60 -87 -180 -87 q-68 0 -123 32.5 q-55 32.5 -86 90.5 q-31 58 -31 132 q0 73 31 130.5 q31 57.5 86 90 q55 32.5 123 32.5 q53 0 95.5 -18 q42.5 -18 71.5 -53 l0 65 l111 0 l0 -340 q0 -36 14.5 -52 q14.5 -16 37.5 -16 q41 0 62.5 46.5 q21.5 46.5 21.5 134.5 q0 106 -48.5 187 q-48.5 81 -135.5 126 q-87 45 -200 45 q-114 0 -202 -47.5 q-88 -47.5 -136 -132.5 q-48 -85 -48 -193 q0 -110 47.5 -195 q47.5 -85 134.5 -132.5 q87 -47.5 200 -47.5 q49 0 99.5 11 q50.5 11 94.5 33 l27 -80 q-44 -23 -103.5 -35 q-59.5 -12 -117.5 -12 q-140 0 -247.5 59 q-107.5 59 -167 163 q-59.5 104 -59.5 236 q0 130 60 233.5 q60 103.5 168.5 162.5 q108.5 59 249.5 59 ZM513 91 q65 0 106.5 42.5 q41.5 42.5 41.5 115.5 q0 72 -41.5 114 q-41.5 42 -106.5 42 q-66 0 -107 -42.5 q-41 -42.5 -41 -113.5 q0 -72 41 -115 q41 -43 107 -43 Z" /><glyph glyph-name="A" unicode="a" d="M548 162 l-350 0 l-69 -162 l-134 0 l315 700 l128 0 l316 -700 l-136 0 l-70 162 ZM505 264 l-132 306 l-131 -306 l263 0 Z" /><glyph glyph-name="B" unicode="b" d="M590 364 q58 -19 92 -63.5 q34 -44.5 34 -110.5 q0 -91 -70 -140.5 q-70 -49.5 -204 -49.5 l-348 0 l0 700 l328 0 q124 0 191 -48.5 q67 -48.5 67 -133.5 q0 -52 -24 -92 q-24 -40 -66 -62 ZM224 598 l0 -193 l184 0 q68 0 104.5 24.5 q36.5 24.5 36.5 71.5 q0 48 -36.5 72.5 q-36.5 24.5 -104.5 24.5 l-184 0 ZM434 102 q151 0 151 101 q0 101 -151 101 l-210 0 l0 -202 l210 0 Z" /><glyph glyph-name="C" unicode="c" d="M418 -10 q-106 0 -191.5 46.5 q-85.5 46.5 -134 128.5 q-48.5 82 -48.5 185 q0 103 49 185 q49 82 134.5 128.5 q85.5 46.5 191.5 46.5 q86 0 157 -30 q71 -30 120 -87 l-84 -79 q-76 82 -187 82 q-72 0 -129 -31.5 q-57 -31.5 -89 -87.5 q-32 -56 -32 -127 q0 -71 32 -127 q32 -56 89 -87.5 q57 -31.5 129 -31.5 q111 0 187 83 l84 -80 q-49 -57 -120.5 -87 q-71.5 -30 -157.5 -30 Z" /><glyph glyph-name="D" unicode="d" d="M94 700 l306 0 q112 0 199 -43.5 q87 -43.5 135 -123 q48 -79.5 48 -183.5 q0 -104 -48 -183.5 q-48 -79.5 -135 -123 q-87 -43.5 -199 -43.5 l-306 0 l0 700 ZM394 110 q77 0 135.5 29.5 q58.5 29.5 90 84 q31.5 54.5 31.5 126.5 q0 72 -31.5 126.5 q-31.5 54.5 -90 84 q-58.5 29.5 -135.5 29.5 l-170 0 l0 -480 l170 0 Z" /><glyph glyph-name="E" unicode="e" d="M619 109 l0 -109 l-525 0 l0 700 l511 0 l0 -109 l-381 0 l0 -182 l338 0 l0 -107 l-338 0 l0 -193 l395 0 Z" /><glyph glyph-name="F" unicode="f" d="M224 591 l0 -213 l338 0 l0 -110 l-338 0 l0 -268 l-130 0 l0 700 l511 0 l0 -109 l-381 0 Z" /><glyph glyph-name="G" unicode="g" d="M572 358 l123 0 l0 -279 q-54 -43 -126 -66 q-72 -23 -148 -23 q-107 0 -193 46.5 q-86 46.5 -135 128.5 q-49 82 -49 185 q0 103 49 185 q49 82 135.5 128.5 q86.5 46.5 194.5 46.5 q88 0 160 -29 q72 -29 121 -85 l-82 -80 q-80 80 -193 80 q-74 0 -131.5 -31 q-57.5 -31 -90 -87 q-32.5 -56 -32.5 -128 q0 -70 32.5 -126 q32.5 -56 90 -88 q57.5 -32 130.5 -32 q82 0 144 36 l0 218 Z" /><glyph glyph-name="H" unicode="h" d="M716 700 l0 -700 l-130 0 l0 300 l-362 0 l0 -300 l-130 0 l0 700 l130 0 l0 -289 l362 0 l0 289 l130 0 Z" /><glyph glyph-name="I" unicode="i" d="M94 700 l130 0 l0 -700 l-130 0 l0 700 Z" /><glyph glyph-name="J" unicode="j" d="M203 -10 q-67 0 -123.5 26.5 q-56.5 26.5 -92.5 74.5 l74 89 q58 -80 139 -80 q109 0 109 129 l0 362 l-249 0 l0 109 l379 0 l0 -464 q0 -123 -60 -184.5 q-60 -61.5 -176 -61.5 Z" /><glyph glyph-name="K" unicode="k" d="M335 293 l-111 -114 l0 -179 l-130 0 l0 700 l130 0 l0 -359 l346 359 l146 0 l-294 -313 l312 -387 l-152 0 l-247 293 Z" /><glyph glyph-name="L" unicode="l" d="M94 700 l130 0 l0 -590 l366 0 l0 -110 l-496 0 l0 700 Z" /><glyph glyph-name="M" unicode="m" d="M737 0 l-1 464 l-230 -384 l-58 0 l-230 378 l0 -458 l-124 0 l0 700 l107 0 l278 -464 l273 464 l107 0 l1 -700 l-123 0 Z" /><glyph glyph-name="N" unicode="n" d="M716 700 l0 -700 l-107 0 l-386 474 l0 -474 l-129 0 l0 700 l107 0 l386 -474 l0 474 l129 0 Z" /><glyph glyph-name="O" unicode="o" d="M421 -10 q-107 0 -193 46.5 q-86 46.5 -135 129 q-49 82.5 -49 184.5 q0 102 49 184.5 q49 82.5 135 129 q86 46.5 193 46.5 q107 0 193 -46.5 q86 -46.5 135 -128.5 q49 -82 49 -185 q0 -103 -49 -185 q-49 -82 -135 -128.5 q-86 -46.5 -193 -46.5 ZM421 104 q70 0 126 31.5 q56 31.5 88 88 q32 56.5 32 126.5 q0 70 -32 126.5 q-32 56.5 -88 88 q-56 31.5 -126 31.5 q-70 0 -126 -31.5 q-56 -31.5 -88 -88 q-32 -56.5 -32 -126.5 q0 -70 32 -126.5 q32 -56.5 88 -88 q56 -31.5 126 -31.5 Z" /><glyph glyph-name="P" unicode="p" d="M382 700 q91 0 158.5 -30 q67.5 -30 103.5 -86 q36 -56 36 -133 q0 -76 -36 -132.5 q-36 -56.5 -103.5 -86.5 q-67.5 -30 -158.5 -30 l-158 0 l0 -202 l-130 0 l0 700 l288 0 ZM376 312 q85 0 129 36 q44 36 44 103 q0 67 -44 103 q-44 36 -129 36 l-152 0 l0 -278 l152 0 Z" /><glyph glyph-name="Q" unicode="q" d="M833 -70 q-35 -41 -81.5 -62 q-46.5 -21 -101.5 -21 q-72 0 -132 32.5 q-60 32.5 -137 112.5 q-97 8 -174 56.5 q-77 48.5 -120 127 q-43 78.5 -43 174.5 q0 102 49 184.5 q49 82.5 135 129 q86 46.5 193 46.5 q107 0 193 -46.5 q86 -46.5 135 -128.5 q49 -82 49 -185 q0 -83 -33 -153.5 q-33 -70.5 -92 -120 q-59 -49.5 -137 -71.5 q29 -31 57 -45 q28 -14 60 -14 q69 0 120 56 l60 -72 ZM175 350 q0 -70 32 -126.5 q32 -56.5 88 -88 q56 -31.5 126 -31.5 q70 0 126 31.5 q56 31.5 88 88 q32 56.5 32 126.5 q0 70 -32 126.5 q-32 56.5 -88 88 q-56 31.5 -126 31.5 q-70 0 -126 -31.5 q-56 -31.5 -88 -88 q-32 -56.5 -32 -126.5 Z" /><glyph glyph-name="R" unicode="r" d="M552 0 l-143 205 q-9 -1 -27 -1 l-158 0 l0 -204 l-130 0 l0 700 l288 0 q91 0 158.5 -30 q67.5 -30 103.5 -86 q36 -56 36 -133 q0 -79 -38.5 -136 q-38.5 -57 -110.5 -85 l161 -230 l-140 0 ZM549 451 q0 67 -44 103 q-44 36 -129 36 l-152 0 l0 -279 l152 0 q85 0 129 36.5 q44 36.5 44 103.5 Z" /><glyph glyph-name="S" unicode="s" d="M311 -10 q-81 0 -156.5 23 q-75.5 23 -119.5 61 l45 101 q43 -34 105.5 -55.5 q62.5 -21.5 125.5 -21.5 q78 0 116.5 25 q38.5 25 38.5 66 q0 30 -21.5 49.5 q-21.5 19.5 -54.5 30.5 q-33 11 -90 25 q-80 19 -129.5 38 q-49.5 19 -85 59.5 q-35.5 40.5 -35.5 109.5 q0 58 31.5 105.5 q31.5 47.5 95 75.5 q63.5 28 155.5 28 q64 0 126 -16 q62 -16 107 -46 l-41 -101 q-46 27 -96 41 q-50 14 -97 14 q-77 0 -114.5 -26 q-37.5 -26 -37.5 -69 q0 -30 21.5 -49 q21.5 -19 54.5 -30 q33 -11 90 -25 q78 -18 128 -37.5 q50 -19.5 85.5 -59.5 q35.5 -40 35.5 -108 q0 -58 -31.5 -105 q-31.5 -47 -95.5 -75 q-64 -28 -156 -28 Z" /><glyph glyph-name="T" unicode="t" d="M236 590 l-232 0 l0 110 l594 0 l0 -110 l-232 0 l0 -590 l-130 0 l0 590 Z" /><glyph glyph-name="U" unicode="u" d="M395 -10 q-145 0 -226 81.5 q-81 81.5 -81 233.5 l0 395 l130 0 l0 -390 q0 -206 178 -206 q177 0 177 206 l0 390 l128 0 l0 -395 q0 -152 -80.5 -233.5 q-80.5 -81.5 -225.5 -81.5 Z" /><glyph glyph-name="V" unicode="v" d="M734 700 l-305 -700 l-128 0 l-306 700 l141 0 l233 -540 l235 540 l130 0 Z" /><glyph glyph-name="W" unicode="w" d="M1117 700 l-232 -700 l-138 0 l-173 518 l-176 -518 l-139 0 l-232 700 l135 0 l174 -532 l181 532 l120 0 l177 -535 l179 535 l124 0 Z" /><glyph glyph-name="X" unicode="x" d="M535 0 l-190 266 l-188 -266 l-148 0 l260 357 l-246 343 l147 0 l179 -249 l177 249 l141 0 l-245 -338 l263 -362 l-150 0 Z" /><glyph glyph-name="Y" unicode="y" d="M396 247 l0 -247 l-130 0 l0 245 l-275 455 l139 0 l205 -341 l207 341 l128 0 l-274 -453 Z" /><glyph glyph-name="Z" unicode="z" d="M638 110 l0 -110 l-597 0 l0 87 l412 503 l-405 0 l0 110 l577 0 l0 -87 l-412 -503 l425 0 Z" /><glyph glyph-name="bracketleft" unicode="[" d="M94 742 l239 0 l0 -100 l-114 0 l0 -736 l114 0 l0 -100 l-239 0 l0 936 Z" /><glyph glyph-name="backslash" unicode="\" d="M290 -100 l-330 942 l112 0 l330 -942 l-112 0 Z" /><glyph glyph-name="bracketright" unicode="]" d="M17 -194 l0 100 l113 0 l0 736 l-113 0 l0 100 l238 0 l0 -936 l-238 0 Z" /><glyph glyph-name="asciicircum" unicode="^" d="M427 142 l-131 317 l-132 -317 l-98 0 l179 416 l102 0 l178 -416 l-98 0 Z" /><glyph glyph-name="underscore" unicode="_" d="M0 0 l500 0 l0 -76 l-500 0 l0 76 Z" /><glyph glyph-name="grave" unicode="`" d="M102 744 l147 0 l135 -137 l-108 0 l-174 137 Z" /><glyph glyph-name="a" unicode="a" d="M286 540 q118 0 180.5 -56.5 q62.5 -56.5 62.5 -170.5 l0 -313 l-118 0 l0 65 q-23 -35 -65.5 -53.5 q-42.5 -18.5 -102.5 -18.5 q-60 0 -105 20.5 q-45 20.5 -69.5 57 q-24.5 36.5 -24.5 82.5 q0 72 53.5 115.5 q53.5 43.5 168.5 43.5 l138 0 l0 8 q0 56 -33.5 86 q-33.5 30 -99.5 30 q-45 0 -88.5 -14 q-43.5 -14 -73.5 -39 l-49 91 q42 32 101 49 q59 17 125 17 ZM269 84 q47 0 83.5 21.5 q36.5 21.5 51.5 61.5 l0 62 l-129 0 q-108 0 -108 -71 q0 -34 27 -54 q27 -20 75 -20 Z" /><glyph glyph-name="b" unicode="b" d="M378 540 q78 0 139.5 -34 q61.5 -34 96.5 -96 q35 -62 35 -143 q0 -81 -35 -143.5 q-35 -62.5 -96.5 -96.5 q-61.5 -34 -139.5 -34 q-55 0 -100.5 19 q-45.5 19 -76.5 57 l0 -69 l-119 0 l0 742 l125 0 l0 -273 q32 35 75.5 53 q43.5 18 95.5 18 ZM364 100 q69 0 113.5 46 q44.5 46 44.5 121 q0 75 -44.5 121 q-44.5 46 -113.5 46 q-45 0 -81 -20.5 q-36 -20.5 -57 -58.5 q-21 -38 -21 -88 q0 -50 21 -88 q21 -38 57 -58.5 q36 -20.5 81 -20.5 Z" /><glyph glyph-name="c" unicode="c" d="M327 -7 q-83 0 -149 35 q-66 35 -103 97.5 q-37 62.5 -37 141.5 q0 79 37 141 q37 62 102.5 97 q65.5 35 149.5 35 q79 0 138.5 -32 q59.5 -32 89.5 -92 l-96 -56 q-23 37 -57.5 55.5 q-34.5 18.5 -75.5 18.5 q-70 0 -116 -45.5 q-46 -45.5 -46 -121.5 q0 -76 45.5 -121.5 q45.5 -45.5 116.5 -45.5 q41 0 75.5 18.5 q34.5 18.5 57.5 55.5 l96 -56 q-31 -60 -90.5 -92.5 q-59.5 -32.5 -137.5 -32.5 Z" /><glyph glyph-name="d" unicode="d" d="M605 742 l0 -742 l-120 0 l0 69 q-31 -38 -76.5 -57 q-45.5 -19 -100.5 -19 q-77 0 -138.5 34 q-61.5 34 -96.5 96.5 q-35 62.5 -35 143.5 q0 81 35 143 q35 62 96.5 96 q61.5 34 138.5 34 q53 0 97 -18 q44 -18 75 -54 l0 274 l125 0 ZM323 100 q45 0 81 20.5 q36 20.5 57 58.5 q21 38 21 88 q0 50 -21 88 q-21 38 -57 58.5 q-36 20.5 -81 20.5 q-45 0 -81 -20.5 q-36 -20.5 -57 -58.5 q-21 -38 -21 -88 q0 -50 21 -88 q21 -38 57 -58.5 q36 -20.5 81 -20.5 Z" /><glyph glyph-name="e" unicode="e" d="M584 264 q0 -13 -2 -37 l-419 0 q11 -59 57.5 -93.5 q46.5 -34.5 115.5 -34.5 q88 0 145 58 l67 -77 q-36 -43 -91 -65 q-55 -22 -124 -22 q-88 0 -155 35 q-67 35 -103.5 97.5 q-36.5 62.5 -36.5 141.5 q0 78 35.5 140.5 q35.5 62.5 98.5 97.5 q63 35 142 35 q78 0 139.5 -34.5 q61.5 -34.5 96 -97 q34.5 -62.5 34.5 -144.5 ZM314 440 q-60 0 -101.5 -35.5 q-41.5 -35.5 -50.5 -94.5 l303 0 q-8 58 -49 94 q-41 36 -102 36 Z" /><glyph glyph-name="f" unicode="f" d="M299 648 q-79 0 -79 -86 l0 -32 l147 0 l0 -100 l-143 0 l0 -430 l-125 0 l0 430 l-88 0 l0 100 l88 0 l0 34 q0 86 50 135.5 q50 49.5 141 49.5 q72 0 113 -29 l-35 -94 q-32 22 -69 22 Z" /><glyph glyph-name="g" unicode="g" d="M612 534 l0 -453 q0 -282 -288 -282 q-77 0 -146 19.5 q-69 19.5 -114 56.5 l56 94 q35 -29 88.5 -46.5 q53.5 -17.5 108.5 -17.5 q88 0 129 40 q41 40 41 122 l0 28 q-32 -35 -78 -53 q-46 -18 -101 -18 q-76 0 -137.5 32.5 q-61.5 32.5 -97 91.5 q-35.5 59 -35.5 135 q0 76 35.5 134.5 q35.5 58.5 97 90.5 q61.5 32 137.5 32 q58 0 105.5 -19 q47.5 -19 79.5 -58 l0 71 l119 0 ZM327 130 q71 0 116.5 42.5 q45.5 42.5 45.5 110.5 q0 67 -45.5 109 q-45.5 42 -116.5 42 q-72 0 -117.5 -42 q-45.5 -42 -45.5 -109 q0 -68 45.5 -110.5 q45.5 -42.5 117.5 -42.5 Z" /><glyph glyph-name="h" unicode="h" d="M385 540 q101 0 162 -59 q61 -59 61 -175 l0 -306 l-125 0 l0 290 q0 70 -33 105.5 q-33 35.5 -94 35.5 q-69 0 -109 -41.5 q-40 -41.5 -40 -119.5 l0 -270 l-125 0 l0 742 l125 0 l0 -270 q31 33 76.5 50.5 q45.5 17.5 101.5 17.5 Z" /><glyph glyph-name="i" unicode="i" d="M82 534 l125 0 l0 -534 l-125 0 l0 534 ZM145 622 q-34 0 -57 21.5 q-23 21.5 -23 53.5 q0 32 23 53.5 q23 21.5 57 21.5 q34 0 57 -20.5 q23 -20.5 23 -51.5 q0 -33 -22.5 -55.5 q-22.5 -22.5 -57.5 -22.5 Z" /><glyph glyph-name="j" unicode="j" d="M27 -201 q-79 0 -120 31 l36 93 q28 -21 73 -21 q35 0 53.5 21.5 q18.5 21.5 18.5 63.5 l0 547 l125 0 l0 -544 q0 -89 -49 -140 q-49 -51 -137 -51 ZM150 622 q-34 0 -57 21.5 q-23 21.5 -23 53.5 q0 32 23 53.5 q23 21.5 57 21.5 q34 0 57 -20.5 q23 -20.5 23 -51.5 q0 -33 -22.5 -55.5 q-22.5 -22.5 -57.5 -22.5 Z" /><glyph glyph-name="k" unicode="k" d="M300 229 l-93 -88 l0 -141 l-125 0 l0 742 l125 0 l0 -448 l259 240 l150 0 l-223 -224 l244 -310 l-152 0 l-185 229 Z" /><glyph glyph-name="l" unicode="l" d="M82 742 l125 0 l0 -742 l-125 0 l0 742 Z" /><glyph glyph-name="m" unicode="m" d="M756 540 q101 0 160 -58.5 q59 -58.5 59 -175.5 l0 -306 l-125 0 l0 290 q0 70 -31 105.5 q-31 35.5 -89 35.5 q-63 0 -101 -41.5 q-38 -41.5 -38 -118.5 l0 -271 l-125 0 l0 290 q0 70 -31 105.5 q-31 35.5 -89 35.5 q-64 0 -101.5 -41 q-37.5 -41 -37.5 -119 l0 -271 l-125 0 l0 534 l119 0 l0 -68 q30 36 75 55 q45 19 100 19 q60 0 106.5 -22.5 q46.5 -22.5 73.5 -66.5 q33 42 85 65.5 q52 23.5 115 23.5 Z" /><glyph glyph-name="n" unicode="n" d="M385 540 q101 0 162 -59 q61 -59 61 -175 l0 -306 l-125 0 l0 290 q0 70 -33 105.5 q-33 35.5 -94 35.5 q-69 0 -109 -41.5 q-40 -41.5 -40 -119.5 l0 -270 l-125 0 l0 534 l119 0 l0 -69 q31 37 78 56 q47 19 106 19 Z" /><glyph glyph-name="o" unicode="o" d="M322 -7 q-81 0 -146 35 q-65 35 -101.5 97.5 q-36.5 62.5 -36.5 141.5 q0 79 36.5 141 q36.5 62 101.5 97 q65 35 146 35 q82 0 147 -35 q65 -35 101.5 -97 q36.5 -62 36.5 -141 q0 -79 -36.5 -141.5 q-36.5 -62.5 -101.5 -97.5 q-65 -35 -147 -35 ZM322 100 q69 0 114 46 q45 46 45 121 q0 75 -45 121 q-45 46 -114 46 q-69 0 -113.5 -46 q-44.5 -46 -44.5 -121 q0 -75 44.5 -121 q44.5 -46 113.5 -46 Z" /><glyph glyph-name="p" unicode="p" d="M378 540 q78 0 139.5 -34 q61.5 -34 96.5 -96 q35 -62 35 -143 q0 -81 -35 -143.5 q-35 -62.5 -96.5 -96.5 q-61.5 -34 -139.5 -34 q-108 0 -171 72 l0 -259 l-125 0 l0 728 l119 0 l0 -70 q31 38 76.5 57 q45.5 19 100.5 19 ZM364 100 q69 0 113.5 46 q44.5 46 44.5 121 q0 75 -44.5 121 q-44.5 46 -113.5 46 q-45 0 -81 -20.5 q-36 -20.5 -57 -58.5 q-21 -38 -21 -88 q0 -50 21 -88 q21 -38 57 -58.5 q36 -20.5 81 -20.5 Z" /><glyph glyph-name="q" unicode="q" d="M604 534 l0 -728 l-125 0 l0 259 q-63 -72 -171 -72 q-78 0 -139.5 34 q-61.5 34 -96 96 q-34.5 62 -34.5 144 q0 81 35 143 q35 62 96 96 q61 34 139 34 q55 0 100.5 -19 q45.5 -19 76.5 -57 l0 70 l119 0 ZM322 100 q69 0 114 46 q45 46 45 121 q0 75 -45 121 q-45 46 -114 46 q-69 0 -113.5 -46 q-44.5 -46 -44.5 -121 q0 -75 44.5 -121 q44.5 -46 113.5 -46 Z" /><glyph glyph-name="r" unicode="r" d="M201 456 q54 84 190 84 l0 -119 q-16 3 -29 3 q-73 0 -114 -42.5 q-41 -42.5 -41 -122.5 l0 -259 l-125 0 l0 534 l119 0 l0 -78 Z" /><glyph glyph-name="s" unicode="s" d="M247 -7 q-65 0 -127 17 q-62 17 -99 43 l48 95 q36 -24 86.5 -38.5 q50.5 -14.5 99.5 -14.5 q112 0 112 59 q0 28 -28.5 39 q-28.5 11 -91.5 21 q-66 10 -107.5 23 q-41.5 13 -72 45.5 q-30.5 32.5 -30.5 90.5 q0 76 63.5 121.5 q63.5 45.5 171.5 45.5 q55 0 110 -12.5 q55 -12.5 90 -33.5 l-48 -95 q-68 40 -153 40 q-55 0 -83.5 -16.5 q-28.5 -16.5 -28.5 -43.5 q0 -30 30.5 -42.5 q30.5 -12.5 94.5 -23.5 q64 -10 105 -23 q41 -13 70.5 -44 q29.5 -31 29.5 -88 q0 -75 -65 -120 q-65 -45 -177 -45 Z" /><glyph glyph-name="t" unicode="t" d="M403 29 q-22 -18 -53.5 -27 q-31.5 -9 -66.5 -9 q-88 0 -136 46 q-48 46 -48 134 l0 257 l-88 0 l0 100 l88 0 l0 122 l125 0 l0 -122 l143 0 l0 -100 l-143 0 l0 -254 q0 -39 19 -59.5 q19 -20.5 55 -20.5 q42 0 70 22 l35 -89 Z" /><glyph glyph-name="u" unicode="u" d="M599 534 l0 -534 l-119 0 l0 68 q-30 -36 -75 -55.5 q-45 -19.5 -97 -19.5 q-107 0 -168.5 59.5 q-61.5 59.5 -61.5 176.5 l0 305 l125 0 l0 -288 q0 -72 32.5 -107.5 q32.5 -35.5 92.5 -35.5 q67 0 106.5 41.5 q39.5 41.5 39.5 119.5 l0 270 l125 0 Z" /><glyph glyph-name="v" unicode="v" d="M582 534 l-229 -534 l-129 0 l-229 534 l130 0 l166 -396 l171 396 l120 0 Z" /><glyph glyph-name="w" unicode="w" d="M915 534 l-197 -534 l-120 0 l-138 368 l-140 -368 l-120 0 l-196 534 l118 0 l141 -394 l147 394 l105 0 l144 -396 l145 396 l111 0 Z" /><glyph glyph-name="x" unicode="x" d="M422 0 l-137 185 l-138 -185 l-138 0 l208 271 l-199 263 l139 0 l131 -175 l131 175 l135 0 l-200 -261 l209 -273 l-141 0 Z" /><glyph glyph-name="y" unicode="y" d="M582 534 l-250 -577 q-35 -87 -85 -122.5 q-50 -35.5 -121 -35.5 q-40 0 -79 13 q-39 13 -64 36 l50 92 q18 -17 42.5 -27 q24.5 -10 49.5 -10 q33 0 54.5 17 q21.5 17 39.5 57 l9 21 l-233 536 l130 0 l168 -395 l169 395 l120 0 Z" /><glyph glyph-name="z" unicode="z" d="M499 100 l0 -100 l-461 0 l0 79 l293 355 l-287 0 l0 100 l447 0 l0 -79 l-294 -355 l302 0 Z" /><glyph glyph-name="braceleft" unicode="{" d="M258 376 q0 -45 -14 -68.5 q-14 -23.5 -45 -33.5 q31 -10 45 -33.5 q14 -23.5 14 -68.5 l0 -190 q0 -37 18.5 -56.5 q18.5 -19.5 55.5 -19.5 l21 0 l0 -100 l-50 0 q-84 0 -127 41.5 q-43 41.5 -43 121.5 l0 206 q0 48 -45 48 l-33 0 l0 102 l33 0 q45 0 45 48 l0 206 q0 80 43 121.5 q43 41.5 127 41.5 l50 0 l0 -100 l-21 0 q-37 0 -55.5 -19.5 q-18.5 -19.5 -18.5 -56.5 l0 -190 Z" /><glyph glyph-name="braceright" unicode="}" d="M316 325 l0 -102 l-34 0 q-21 0 -32.5 -12 q-11.5 -12 -11.5 -36 l0 -206 q0 -80 -43.5 -121.5 q-43.5 -41.5 -127.5 -41.5 l-50 0 l0 100 l21 0 q38 0 56.5 19.5 q18.5 19.5 18.5 56.5 l0 190 q0 46 13.5 69 q13.5 23 44.5 33 q-31 10 -44.5 33 q-13.5 23 -13.5 69 l0 190 q0 37 -18.5 56.5 q-18.5 19.5 -56.5 19.5 l-21 0 l0 100 l50 0 q84 0 127.5 -41.5 q43.5 -41.5 43.5 -121.5 l0 -206 q0 -24 11.5 -36 q11.5 -12 32.5 -12 l34 0 Z" /><glyph glyph-name="asciitilde" unicode="~" d="M396 258 q-36 0 -63.5 14.5 q-27.5 14.5 -59.5 40.5 q-28 21 -42.5 29 q-14.5 8 -30.5 8 q-29 0 -46.5 -23 q-17.5 -23 -19.5 -61 l-80 0 q2 87 40 132.5 q38 45.5 100 45.5 q37 0 64.5 -14.5 q27.5 -14.5 60.5 -41.5 q24 -19 39.5 -28 q15.5 -9 31.5 -9 q30 0 47.5 23 q17.5 23 19.5 62 l79 0 q-1 -88 -39 -133 q-38 -45 -101 -45 Z" /><glyph glyph-name="section" unicode="§" d="M479 294 q0 -38 -18 -70 q-18 -32 -51 -54 q48 -38 48 -107 q0 -50 -27 -88.5 q-27 -38.5 -77.5 -60 q-50.5 -21.5 -116.5 -21.5 q-60 0 -120 17.5 q-60 17.5 -93 43.5 l37 93 q34 -26 82.5 -42 q48.5 -16 96.5 -16 q50 0 78.5 18.5 q28.5 18.5 28.5 52.5 q0 34 -30.5 49.5 q-30.5 15.5 -94.5 29.5 q-60 14 -98 29 q-38 15 -65 47 q-27 32 -27 86 q0 42 18 75 q18 33 51 54 q-47 39 -47 106 q0 77 64 124 q64 47 176 47 q50 0 105.5 -13 q55.5 -13 86.5 -36 l-37 -91 q-70 44 -163 44 q-60 0 -90.5 -18.5 q-30.5 -18.5 -30.5 -52.5 q0 -22 15.5 -36 q15.5 -14 38.5 -21.5 q23 -7.5 66 -18.5 q60 -14 99 -30 q39 -16 67 -49.5 q28 -33.5 28 -90.5 ZM141 309 q0 -25 16.5 -40.5 q16.5 -15.5 41.5 -24.5 q25 -9 70 -19 q30 -7 40 -10 q28 10 44.5 30 q16.5 20 16.5 47 q0 25 -16.5 40.5 q-16.5 15.5 -41.5 24.5 q-25 9 -70 19 q-30 7 -40 10 q-28 -10 -44.5 -30 q-16.5 -20 -16.5 -47 Z" /><glyph glyph-name="copyright" unicode="©" d="M396 -3 q-98 0 -178.5 47 q-80.5 47 -127 128 q-46.5 81 -46.5 178 q0 97 46.5 178 q46.5 81 127.5 128 q81 47 180 47 q99 0 179.5 -46 q80.5 -46 126.5 -126.5 q46 -80.5 46 -178.5 q0 -98 -47 -179.5 q-47 -81.5 -128 -128.5 q-81 -47 -179 -47 ZM396 52 q83 0 150.5 40 q67.5 40 106.5 108.5 q39 68.5 39 151.5 q0 83 -38 150.5 q-38 67.5 -105 106.5 q-67 39 -151 39 q-84 0 -152 -39.5 q-68 -39.5 -106.5 -107.5 q-38.5 -68 -38.5 -151 q0 -83 38.5 -151 q38.5 -68 106 -107.5 q67.5 -39.5 150.5 -39.5 ZM407 146 q-61 0 -109 26 q-48 26 -75 72.5 q-27 46.5 -27 105.5 q0 59 27 105.5 q27 46.5 75 72.5 q48 26 109 26 q56 0 99.5 -23.5 q43.5 -23.5 67.5 -63.5 l-73 -48 q-31 50 -95 50 q-49 0 -81.5 -32.5 q-32.5 -32.5 -32.5 -86.5 q0 -54 32.5 -86.5 q32.5 -32.5 81.5 -32.5 q64 0 95 50 l73 -46 q-24 -42 -67.5 -65.5 q-43.5 -23.5 -99.5 -23.5 Z" /><glyph glyph-name="guillemotleft" unicode="«" d="M42 267 l142 194 l113 0 l-139 -194 l139 -193 l-113 0 l-142 193 ZM250 267 l142 194 l113 0 l-139 -194 l139 -193 l-113 0 l-142 193 Z" /><glyph glyph-name="registered" unicode="®" d="M398 703 q99 0 179.5 -46 q80.5 -46 126.5 -126.5 q46 -80.5 46 -178.5 q0 -98 -47 -179.5 q-47 -81.5 -128 -128.5 q-81 -47 -179 -47 q-98 0 -178.5 47 q-80.5 47 -127 128 q-46.5 81 -46.5 178 q0 97 46.5 178 q46.5 81 127.5 128 q81 47 180 47 ZM396 52 q83 0 150.5 40 q67.5 40 106.5 108.5 q39 68.5 39 151.5 q0 83 -38 150.5 q-38 67.5 -105 106.5 q-67 39 -151 39 q-84 0 -152 -39.5 q-68 -39.5 -106.5 -107.5 q-38.5 -68 -38.5 -151 q0 -83 38.5 -151 q38.5 -68 106 -107.5 q67.5 -39.5 150.5 -39.5 ZM579 410 q0 -44 -20.5 -75 q-20.5 -31 -58.5 -47 l88 -135 l-86 0 l-78 120 l-11 0 l-78 0 l0 -120 l-86 0 l0 394 l164 0 q77 0 121.5 -37 q44.5 -37 44.5 -100 ZM408 340 q42 0 65 18.5 q23 18.5 23 51.5 q0 33 -23 51 q-23 18 -65 18 l-74 0 l0 -139 l74 0 Z" /><glyph glyph-name="degree" unicode="°" d="M209 373 q-47 0 -86 22.5 q-39 22.5 -61.5 60.5 q-22.5 38 -22.5 84 q0 46 22.5 84.5 q22.5 38.5 61.5 61 q39 22.5 86 22.5 q47 0 86 -22.5 q39 -22.5 61.5 -61 q22.5 -38.5 22.5 -84.5 q0 -46 -22.5 -84 q-22.5 -38 -61.5 -60.5 q-39 -22.5 -86 -22.5 ZM209 439 q43 0 71.5 29 q28.5 29 28.5 72 q0 44 -28.5 73 q-28.5 29 -71.5 29 q-43 0 -72 -29 q-29 -29 -29 -73 q0 -43 29 -72 q29 -29 72 -29 Z" /><glyph glyph-name="plusminus" unicode="±" d="M526 464 l0 -99 l-177 0 l0 -168 l-107 0 l0 168 l-177 0 l0 99 l177 0 l0 169 l107 0 l0 -169 l177 0 ZM65 100 l461 0 l0 -100 l-461 0 l0 100 Z" /><glyph glyph-name="periodcentered" unicode="·" d="M142 195 q-35 0 -58.5 23 q-23.5 23 -23.5 61 q0 36 23.5 59.5 q23.5 23.5 58.5 23.5 q36 0 59 -23 q23 -23 23 -60 q0 -38 -23 -61 q-23 -23 -59 -23 Z" /><glyph glyph-name="guillemotright" unicode="»" d="M30 74 l139 193 l-139 194 l113 0 l142 -194 l-142 -193 l-113 0 ZM238 74 l139 193 l-139 194 l113 0 l142 -194 l-142 -193 l-113 0 Z" /><glyph glyph-name="uni0401" unicode="&#x401;" d="M623 109 l0 -109 l-525 0 l0 700 l511 0 l0 -109 l-381 0 l0 -182 l338 0 l0 -107 l-338 0 l0 -193 l395 0 ZM258 768 q-26 0 -43 17 q-17 17 -17 43 q0 27 17 44 q17 17 43 17 q26 0 43 -17 q17 -17 17 -44 q0 -26 -17 -43 q-17 -17 -43 -17 ZM452 768 q-26 0 -43 17 q-17 17 -17 43 q0 27 17 44 q17 17 43 17 q26 0 43 -17 q17 -17 17 -44 q0 -26 -17 -43 q-17 -17 -43 -17 Z" /><glyph glyph-name="uni0410" unicode="&#x410;" d="M562 162 l-350 0 l-69 -162 l-134 0 l315 700 l128 0 l316 -700 l-136 0 l-70 162 ZM519 264 l-132 306 l-131 -306 l263 0 Z" /><glyph glyph-name="uni0411" unicode="&#x411;" d="M99 700 l545 0 l0 -107 l-417 0 l0 -172 l207 0 q126 0 191.5 -52.5 q65.5 -52.5 65.5 -151.5 q0 -104 -72 -160.5 q-72 -56.5 -205 -56.5 l-315 0 l0 700 ZM407 100 q75 0 114 29 q39 29 39 84 q0 108 -153 108 l-180 0 l0 -221 l180 0 Z" /><glyph glyph-name="uni0412" unicode="&#x412;" d="M559 364 q67 -18 102 -61.5 q35 -43.5 35 -108.5 q0 -92 -68 -143 q-68 -51 -197 -51 l-332 0 l0 700 l313 0 q118 0 184 -47 q66 -47 66 -133 q0 -55 -26.5 -95 q-26.5 -40 -76.5 -61 ZM227 401 l174 0 q63 0 96 25 q33 25 33 74 q0 49 -33 74.5 q-33 25.5 -96 25.5 l-174 0 l0 -199 ZM427 100 q138 0 138 104 q0 102 -138 102 l-200 0 l0 -206 l200 0 Z" /><glyph glyph-name="uni0413" unicode="&#x413;" d="M573 590 l-347 0 l1 -590 l-128 0 l0 700 l475 0 l-1 -110 Z" /><glyph glyph-name="uni0414" unicode="&#x414;" d="M792 110 l0 -259 l-120 0 l0 149 l-537 0 l0 -149 l-121 0 l1 259 l30 0 q66 3 92.5 97.5 q26.5 94.5 32.5 270.5 l8 222 l513 0 l0 -590 l101 0 ZM284 466 q-5 -136 -22 -226.5 q-17 -90.5 -54 -129.5 l355 0 l0 480 l-274 0 l-5 -124 Z" /><glyph glyph-name="uni0415" unicode="&#x415;" d="M623 109 l0 -109 l-525 0 l0 700 l511 0 l0 -109 l-381 0 l0 -182 l338 0 l0 -107 l-338 0 l0 -193 l395 0 Z" /><glyph glyph-name="uni0416" unicode="&#x416;" d="M710 295 l-120 0 l0 -295 l-127 0 l0 295 l-120 0 l-177 -295 l-150 0 l220 365 l-205 335 l138 0 l171 -293 l123 0 l0 293 l127 0 l0 -293 l121 0 l172 293 l138 0 l-204 -336 l219 -364 l-150 0 l-176 295 Z" /><glyph glyph-name="uni0417" unicode="&#x417;" d="M466 365 q63 -20 98.5 -64.5 q35.5 -44.5 35.5 -104.5 q0 -63 -41 -109.5 q-41 -46.5 -109.5 -71.5 q-68.5 -25 -149.5 -25 q-70 0 -140.5 19.5 q-70.5 19.5 -130.5 58.5 l42 95 q46 -31 102 -47.5 q56 -16.5 111 -16.5 q79 0 131.5 31 q52.5 31 52.5 85 q0 46 -38 70 q-38 24 -105 24 l-163 0 l0 102 l153 0 q58 0 91 24 q33 24 33 65 q0 49 -44.5 76 q-44.5 27 -113.5 27 q-47 0 -97 -13.5 q-50 -13.5 -94 -39.5 l-41 105 q54 29 114.5 43.5 q60.5 14.5 120.5 14.5 q78 0 143.5 -24 q65.5 -24 104.5 -68.5 q39 -44.5 39 -104.5 q0 -52 -28 -91 q-28 -39 -77 -60 Z" /><glyph glyph-name="uni0418" unicode="&#x418;" d="M99 700 l128 0 l0 -497 l376 497 l121 0 l0 -700 l-128 0 l0 496 l-376 -496 l-121 0 l0 700 Z" /><glyph glyph-name="uni0419" unicode="&#x419;" d="M99 700 l128 0 l0 -497 l376 497 l121 0 l0 -700 l-128 0 l0 496 l-376 -496 l-121 0 l0 700 ZM410 747 q-90 0 -135.5 37 q-45.5 37 -46.5 108 l91 0 q1 -37 24 -57 q23 -20 67 -20 q43 0 67.5 20 q24.5 20 25.5 57 l90 0 q-1 -70 -47.5 -107.5 q-46.5 -37.5 -135.5 -37.5 Z" /><glyph glyph-name="uni041A" unicode="&#x41a;" d="M356 295 l-130 0 l0 -295 l-128 0 l0 700 l128 0 l0 -293 l134 0 l201 293 l138 0 l-239 -339 l248 -361 l-147 0 l-205 295 Z" /><glyph glyph-name="uni041B" unicode="&#x41b;" d="M696 700 l0 -700 l-128 0 l0 590 l-276 0 l-6 -175 q-5 -147 -24 -238.5 q-19 -91.5 -61 -139 q-42 -47.5 -116 -47.5 q-26 0 -71 10 l9 113 q13 -4 30 -4 q61 0 86.5 72.5 q25.5 72.5 31.5 228.5 l10 290 l515 0 Z" /><glyph glyph-name="uni041C" unicode="&#x41c;" d="M741 0 l-1 464 l-230 -384 l-58 0 l-230 378 l0 -458 l-123 0 l0 700 l107 0 l277 -463 l274 463 l106 0 l2 -700 l-124 0 Z" /><glyph glyph-name="uni041D" unicode="&#x41d;" d="M720 700 l0 -700 l-130 0 l0 300 l-362 0 l0 -300 l-130 0 l0 700 l130 0 l0 -289 l362 0 l0 289 l130 0 Z" /><glyph glyph-name="uni041E" unicode="&#x41e;" d="M422 -10 q-107 0 -193 46.5 q-86 46.5 -135 129 q-49 82.5 -49 184.5 q0 102 49 184.5 q49 82.5 135 129 q86 46.5 193 46.5 q107 0 193 -46.5 q86 -46.5 135 -128.5 q49 -82 49 -185 q0 -103 -49 -185 q-49 -82 -135 -128.5 q-86 -46.5 -193 -46.5 ZM422 104 q70 0 126 31.5 q56 31.5 88 88 q32 56.5 32 126.5 q0 70 -32 126.5 q-32 56.5 -88 88 q-56 31.5 -126 31.5 q-70 0 -126 -31.5 q-56 -31.5 -88 -88 q-32 -56.5 -32 -126.5 q0 -70 32 -126.5 q32 -56.5 88 -88 q56 -31.5 126 -31.5 Z" /><glyph glyph-name="uni041F" unicode="&#x41f;" d="M718 700 l0 -700 l-128 0 l0 590 l-363 0 l0 -590 l-128 0 l0 700 l619 0 Z" /><glyph glyph-name="uni0420" unicode="&#x420;" d="M386 700 q91 0 158.5 -30 q67.5 -30 103.5 -86 q36 -56 36 -133 q0 -76 -36 -132.5 q-36 -56.5 -103.5 -86.5 q-67.5 -30 -158.5 -30 l-158 0 l0 -202 l-130 0 l0 700 l288 0 ZM380 312 q85 0 129 36 q44 36 44 103 q0 67 -44 103 q-44 36 -129 36 l-152 0 l0 -278 l152 0 Z" /><glyph glyph-name="uni0421" unicode="&#x421;" d="M420 -10 q-106 0 -191.5 46.5 q-85.5 46.5 -134 128.5 q-48.5 82 -48.5 185 q0 103 49 185 q49 82 134.5 128.5 q85.5 46.5 191.5 46.5 q86 0 157 -30 q71 -30 120 -87 l-84 -79 q-76 82 -187 82 q-72 0 -129 -31.5 q-57 -31.5 -89 -87.5 q-32 -56 -32 -127 q0 -71 32 -127 q32 -56 89 -87.5 q57 -31.5 129 -31.5 q111 0 187 83 l84 -80 q-49 -57 -120.5 -87 q-71.5 -30 -157.5 -30 Z" /><glyph glyph-name="uni0422" unicode="&#x422;" d="M606 590 l-232 0 l0 -590 l-129 0 l0 590 l-231 0 l0 110 l592 0 l0 -110 Z" /><glyph glyph-name="uni0423" unicode="&#x423;" d="M699 700 l-304 -565 q-40 -75 -95.5 -112.5 q-55.5 -37.5 -120.5 -37.5 q-52 0 -103 22 l32 102 q41 -13 68 -13 q63 0 104 65 l11 17 l-279 522 l139 0 l207 -411 l213 411 l128 0 Z" /><glyph glyph-name="uni0424" unicode="&#x424;" d="M898 351 q0 -138 -96 -218 q-96 -80 -273 -87 l0 -74 l-120 0 l0 74 q-177 9 -273.5 88 q-96.5 79 -96.5 217 q0 138 96.5 217.5 q96.5 79.5 273.5 88.5 l0 71 l120 0 l0 -71 q177 -9 273 -88.5 q96 -79.5 96 -217.5 ZM529 148 q120 9 182 60.5 q62 51.5 62 143.5 q0 92 -62.5 143 q-62.5 51 -181.5 59 l0 -406 ZM166 351 q0 -91 62.5 -142 q62.5 -51 180.5 -61 l0 406 q-243 -18 -243 -203 Z" /><glyph glyph-name="uni0425" unicode="&#x425;" d="M179 700 l165 -234 l165 234 l152 0 l-235 -336 l254 -364 l-154 0 l-182 255 l-181 -255 l-150 0 l253 359 l-237 341 l150 0 Z" /><glyph glyph-name="uni0426" unicode="&#x426;" d="M813 110 l0 -264 l-120 0 l0 154 l-594 0 l0 700 l128 0 l0 -590 l353 0 l0 590 l129 0 l0 -590 l104 0 Z" /><glyph glyph-name="uni0427" unicode="&#x427;" d="M644 700 l0 -700 l-129 0 l0 264 q-99 -37 -188 -37 q-134 0 -206.5 64.5 q-72.5 64.5 -72.5 185.5 l0 223 l129 0 l0 -209 q0 -74 43 -113 q43 -39 123 -39 q91 0 172 37 l0 324 l129 0 Z" /><glyph glyph-name="uni0428" unicode="&#x428;" d="M998 700 l0 -700 l-899 0 l0 700 l128 0 l0 -590 l258 0 l0 590 l128 0 l0 -590 l257 0 l0 590 l128 0 Z" /><glyph glyph-name="uni0429" unicode="&#x429;" d="M998 700 l0 -700 l-899 0 l0 700 l128 0 l0 -590 l258 0 l0 590 l128 0 l0 -590 l257 0 l0 590 l128 0 ZM1099 110 l0 -259 l-120 0 l0 149 l-112 0 l0 110 l232 0 Z" /><glyph glyph-name="uni042A" unicode="&#x42a;" d="M541 463 q126 0 193.5 -56.5 q67.5 -56.5 67.5 -167.5 q0 -117 -73.5 -178 q-73.5 -61 -209.5 -61 l-300 0 l0 590 l-205 0 l0 110 l333 0 l0 -237 l194 0 ZM514 100 q76 0 116.5 35 q40.5 35 40.5 102 q0 127 -157 127 l-167 0 l0 -264 l167 0 Z" /><glyph glyph-name="uni042B" unicode="&#x42b;" d="M421 463 q126 0 193.5 -56.5 q67.5 -56.5 67.5 -167.5 q0 -116 -74 -177.5 q-74 -61.5 -208 -61.5 l-301 0 l0 700 l128 0 l0 -237 l194 0 ZM394 100 q76 0 117 35 q41 35 41 102 q0 127 -158 127 l-167 0 l0 -264 l167 0 ZM783 700 l128 0 l0 -700 l-128 0 l0 700 Z" /><glyph glyph-name="uni042C" unicode="&#x42c;" d="M421 463 q126 0 193.5 -56.5 q67.5 -56.5 67.5 -167.5 q0 -116 -74 -177.5 q-74 -61.5 -208 -61.5 l-301 0 l0 700 l128 0 l0 -237 l194 0 ZM394 100 q76 0 117 35 q41 35 41 102 q0 127 -158 127 l-167 0 l0 -264 l167 0 Z" /><glyph glyph-name="uni042D" unicode="&#x42d;" d="M306 710 q102 0 183.5 -46.5 q81.5 -46.5 127.5 -128.5 q46 -82 46 -185 q0 -103 -46 -185 q-46 -82 -127.5 -128.5 q-81.5 -46.5 -183.5 -46.5 q-89 0 -161.5 30 q-72.5 30 -120.5 87 l82 80 q77 -83 193 -83 q90 0 152.5 55 q62.5 55 76.5 145 l-313 0 l0 103 l311 0 q-17 85 -78.5 137 q-61.5 52 -148.5 52 q-116 0 -193 -83 l-82 80 q48 57 120.5 87 q72.5 30 161.5 30 Z" /><glyph glyph-name="uni042E" unicode="&#x42e;" d="M697 710 q103 0 185.5 -46.5 q82.5 -46.5 129.5 -128.5 q47 -82 47 -185 q0 -103 -47 -185 q-47 -82 -129.5 -128.5 q-82.5 -46.5 -185.5 -46.5 q-94 0 -171.5 39 q-77.5 39 -127 109 q-49.5 70 -61.5 159 l-110 0 l0 -297 l-128 0 l0 700 l128 0 l0 -287 l112 0 q14 87 63.5 154.5 q49.5 67.5 126 105 q76.5 37.5 168.5 37.5 ZM697 104 q65 0 118 31 q53 31 83 87 q30 56 30 128 q0 72 -30 128 q-30 56 -83 87 q-53 31 -118 31 q-65 0 -117.5 -31 q-52.5 -31 -83 -87 q-30.5 -56 -30.5 -128 q0 -72 30.5 -128 q30.5 -56 83 -87 q52.5 -31 117.5 -31 Z" /><glyph glyph-name="uni042F" unicode="&#x42f;" d="M633 700 l0 -700 l-128 0 l0 195 l-173 0 l-14 0 l-130 -195 l-137 0 l150 216 q-73 27 -112.5 85.5 q-39.5 58.5 -39.5 141.5 q0 80 36 138 q36 58 102 88.5 q66 30.5 155 30.5 l291 0 ZM346 590 q-80 0 -122.5 -37 q-42.5 -37 -42.5 -108 q0 -69 41 -106.5 q41 -37.5 119 -37.5 l164 0 l0 289 l-159 0 Z" /><glyph glyph-name="uni0430" unicode="&#x430;" d="M283 540 q118 0 180.5 -56.5 q62.5 -56.5 62.5 -170.5 l0 -313 l-118 0 l0 65 q-23 -35 -65.5 -53.5 q-42.5 -18.5 -102.5 -18.5 q-60 0 -105 20.5 q-45 20.5 -69.5 57 q-24.5 36.5 -24.5 82.5 q0 72 53.5 115.5 q53.5 43.5 168.5 43.5 l138 0 l0 8 q0 56 -33.5 86 q-33.5 30 -99.5 30 q-45 0 -88.5 -14 q-43.5 -14 -73.5 -39 l-49 91 q42 32 101 49 q59 17 125 17 ZM266 84 q47 0 83.5 21.5 q36.5 21.5 51.5 61.5 l0 62 l-129 0 q-108 0 -108 -71 q0 -34 27 -54 q27 -20 75 -20 Z" /><glyph glyph-name="uni0431" unicode="&#x431;" d="M373 508 q76 0 134 -32.5 q58 -32.5 90.5 -90.5 q32.5 -58 32.5 -133 q0 -77 -36 -136.5 q-36 -59.5 -101 -92.5 q-65 -33 -148 -33 q-139 0 -215 92 q-76 92 -76 265 q0 161 69 255 q69 94 211 124 l248 53 l18 -112 l-225 -46 q-97 -20 -145 -68 q-48 -48 -56 -135 q36 43 87 66.5 q51 23.5 112 23.5 ZM348 91 q69 0 111.5 44.5 q42.5 44.5 42.5 113.5 q0 69 -42.5 111 q-42.5 42 -111.5 42 q-70 0 -113 -42 q-43 -42 -43 -111 q0 -70 43.5 -114 q43.5 -44 112.5 -44 Z" /><glyph glyph-name="uni0432" unicode="&#x432;" d="M471 278 q99 -30 99 -128 q0 -72 -54 -111 q-54 -39 -160 -39 l-272 0 l0 534 l261 0 q98 0 153 -36 q55 -36 55 -102 q0 -41 -21.5 -71 q-21.5 -30 -60.5 -47 ZM203 311 l131 0 q97 0 97 67 q0 65 -97 65 l-131 0 l0 -132 ZM346 91 q103 0 103 67 q0 35 -24 52.5 q-24 17.5 -75 17.5 l-147 0 l0 -137 l143 0 Z" /><glyph glyph-name="uni0433" unicode="&#x433;" d="M494 428 l-285 0 l0 -428 l-125 0 l0 534 l410 0 l0 -106 Z" /><glyph glyph-name="uni0434" unicode="&#x434;" d="M654 106 l0 -225 l-117 0 l0 119 l-412 0 l0 -119 l-116 0 l0 225 l25 0 q51 2 69.5 65.5 q18.5 63.5 24.5 179.5 l7 183 l440 0 l0 -428 l79 0 ZM242 342 q-4 -92 -15 -150 q-11 -58 -40 -86 l263 0 l0 322 l-205 0 l-3 -86 Z" /><glyph glyph-name="uni0435" unicode="&#x435;" d="M584 264 q0 -13 -2 -37 l-419 0 q11 -59 57.5 -93.5 q46.5 -34.5 115.5 -34.5 q88 0 145 58 l67 -77 q-36 -43 -91 -65 q-55 -22 -124 -22 q-88 0 -155 35 q-67 35 -103.5 97.5 q-36.5 62.5 -36.5 141.5 q0 78 35.5 140.5 q35.5 62.5 98.5 97.5 q63 35 142 35 q78 0 139.5 -34.5 q61.5 -34.5 96 -97 q34.5 -62.5 34.5 -144.5 ZM314 440 q-60 0 -101.5 -35.5 q-41.5 -35.5 -50.5 -94.5 l303 0 q-8 58 -49 94 q-41 36 -102 36 Z" /><glyph glyph-name="uni0436" unicode="&#x436;" d="M591 214 l-90 0 l0 -214 l-124 0 l0 214 l-90 0 l-130 -214 l-148 0 l175 276 l-162 258 l133 0 l130 -216 l92 0 l0 216 l124 0 l0 -216 l91 0 l131 216 l133 0 l-162 -258 l176 -276 l-149 0 l-130 214 Z" /><glyph glyph-name="uni0437" unicode="&#x437;" d="M403 278 q50 -14 77.5 -45.5 q27.5 -31.5 27.5 -75.5 q0 -49 -33 -86.5 q-33 -37.5 -91 -58.5 q-58 -21 -132 -21 q-62 0 -121 14.5 q-59 14.5 -107 41.5 l36 93 q39 -22 88 -34 q49 -12 98 -12 q63 0 98.5 19.5 q35.5 19.5 35.5 53.5 q0 31 -27.5 48 q-27.5 17 -77.5 17 l-104 0 l0 84 l94 0 q47 0 73.5 16 q26.5 16 26.5 45 q0 29 -32 46 q-32 17 -88 17 q-80 0 -169 -39 l-32 92 q105 49 212 49 q68 0 122 -18.5 q54 -18.5 84.5 -52 q30.5 -33.5 30.5 -76.5 q0 -39 -24 -69.5 q-24 -30.5 -66 -47.5 Z" /><glyph glyph-name="uni0438" unicode="&#x438;" d="M84 534 l125 0 l0 -352 l295 352 l114 0 l0 -534 l-125 0 l0 352 l-294 -352 l-115 0 l0 534 Z" /><glyph glyph-name="uni0439" unicode="&#x439;" d="M84 534 l125 0 l0 -352 l295 352 l114 0 l0 -534 l-125 0 l0 352 l-294 -352 l-115 0 l0 534 ZM343 597 q-81 0 -123.5 37.5 q-42.5 37.5 -43.5 109.5 l83 0 q1 -36 22.5 -57 q21.5 -21 60.5 -21 q38 0 60.5 21 q22.5 21 23.5 57 l85 0 q-1 -72 -44 -109.5 q-43 -37.5 -124 -37.5 Z" /><glyph glyph-name="uni043A" unicode="&#x43a;" d="M306 214 l-97 0 l0 -214 l-125 0 l0 534 l125 0 l0 -216 l100 0 l158 216 l134 0 l-194 -257 l207 -277 l-147 0 l-161 214 Z" /><glyph glyph-name="uni043B" unicode="&#x43b;" d="M568 534 l0 -534 l-125 0 l0 428 l-200 0 l-5 -106 q-5 -106 -19.5 -177.5 q-14.5 -71.5 -49 -113 q-34.5 -41.5 -94.5 -41.5 q-28 0 -69 11 l6 105 q14 -3 24 -3 q38 0 57 30.5 q19 30.5 24.5 73 q5.5 42.5 9.5 121.5 l9 206 l432 0 Z" /><glyph glyph-name="uni043C" unicode="&#x43c;" d="M609 0 l0 354 l-180 -298 l-54 0 l-177 299 l0 -355 l-114 0 l0 534 l131 0 l190 -334 l199 334 l117 0 l1 -534 l-113 0 Z" /><glyph glyph-name="uni043D" unicode="&#x43d;" d="M84 534 l125 0 l0 -217 l269 0 l0 217 l125 0 l0 -534 l-125 0 l0 211 l-269 0 l0 -211 l-125 0 l0 534 Z" /><glyph glyph-name="uni043E" unicode="&#x43e;" d="M322 -7 q-81 0 -146 35 q-65 35 -101.5 97.5 q-36.5 62.5 -36.5 141.5 q0 79 36.5 141 q36.5 62 101.5 97 q65 35 146 35 q82 0 147 -35 q65 -35 101.5 -97 q36.5 -62 36.5 -141 q0 -79 -36.5 -141.5 q-36.5 -62.5 -101.5 -97.5 q-65 -35 -147 -35 ZM322 100 q69 0 114 46 q45 46 45 121 q0 75 -45 121 q-45 46 -114 46 q-69 0 -113.5 -46 q-44.5 -46 -44.5 -121 q0 -75 44.5 -121 q44.5 -46 113.5 -46 Z" /><glyph glyph-name="uni043F" unicode="&#x43f;" d="M596 534 l0 -534 l-124 0 l0 428 l-263 0 l0 -428 l-125 0 l0 534 l512 0 Z" /><glyph glyph-name="uni0440" unicode="&#x440;" d="M380 540 q78 0 139.5 -34 q61.5 -34 96.5 -96 q35 -62 35 -143 q0 -81 -35 -143.5 q-35 -62.5 -96.5 -96.5 q-61.5 -34 -139.5 -34 q-108 0 -171 72 l0 -259 l-125 0 l0 728 l119 0 l0 -70 q31 38 76.5 57 q45.5 19 100.5 19 ZM366 100 q69 0 113.5 46 q44.5 46 44.5 121 q0 75 -44.5 121 q-44.5 46 -113.5 46 q-45 0 -81 -20.5 q-36 -20.5 -57 -58.5 q-21 -38 -21 -88 q0 -50 21 -88 q21 -38 57 -58.5 q36 -20.5 81 -20.5 Z" /><glyph glyph-name="uni0441" unicode="&#x441;" d="M327 -7 q-83 0 -149 35 q-66 35 -103 97.5 q-37 62.5 -37 141.5 q0 79 37 141 q37 62 102.5 97 q65.5 35 149.5 35 q79 0 138.5 -32 q59.5 -32 89.5 -92 l-96 -56 q-23 37 -57.5 55.5 q-34.5 18.5 -75.5 18.5 q-70 0 -116 -45.5 q-46 -45.5 -46 -121.5 q0 -76 45.5 -121.5 q45.5 -45.5 116.5 -45.5 q41 0 75.5 18.5 q34.5 18.5 57.5 55.5 l96 -56 q-31 -60 -90.5 -92.5 q-59.5 -32.5 -137.5 -32.5 Z" /><glyph glyph-name="uni0442" unicode="&#x442;" d="M507 428 l-187 0 l0 -428 l-125 0 l0 428 l-188 0 l0 106 l500 0 l0 -106 Z" /><glyph glyph-name="uni0443" unicode="&#x443;" d="M588 534 l-250 -577 q-35 -87 -85 -122.5 q-50 -35.5 -121 -35.5 q-40 0 -79 13 q-39 13 -64 36 l50 92 q18 -17 42.5 -27 q24.5 -10 49.5 -10 q33 0 54.5 17 q21.5 17 39.5 57 l9 21 l-233 536 l130 0 l168 -395 l169 395 l120 0 Z" /><glyph glyph-name="uni0444" unicode="&#x444;" d="M790 268 q0 -124 -82.5 -195 q-82.5 -71 -235.5 -81 l0 -186 l-118 0 l0 185 q-153 10 -235 81 q-82 71 -82 196 q0 124 82 193.5 q82 69.5 235 79.5 l0 201 l118 0 l0 -201 q153 -10 235.5 -80 q82.5 -70 82.5 -193 ZM160 268 q0 -77 47.5 -120 q47.5 -43 146.5 -52 l0 339 q-99 -8 -146.5 -50 q-47.5 -42 -47.5 -117 ZM472 96 q196 18 196 172 q0 76 -48.5 117.5 q-48.5 41.5 -147.5 49.5 l0 -339 Z" /><glyph glyph-name="uni0445" unicode="&#x445;" d="M418 0 l-137 185 l-138 -185 l-138 0 l208 271 l-199 263 l139 0 l131 -175 l131 175 l135 0 l-200 -261 l209 -273 l-141 0 Z" /><glyph glyph-name="uni0446" unicode="&#x446;" d="M670 106 l0 -229 l-117 0 l0 123 l-469 0 l0 534 l125 0 l0 -428 l255 0 l0 428 l125 0 l0 -428 l81 0 Z" /><glyph glyph-name="uni0447" unicode="&#x447;" d="M537 534 l0 -534 l-125 0 l0 207 q-77 -37 -161 -37 q-103 0 -158 47.5 q-55 47.5 -55 145.5 l0 171 l125 0 l0 -163 q0 -51 30 -76 q30 -25 85 -25 q70 0 134 30 l0 234 l125 0 Z" /><glyph glyph-name="uni0448" unicode="&#x448;" d="M871 534 l0 -534 l-787 0 l0 534 l125 0 l0 -428 l207 0 l0 428 l125 0 l0 -428 l205 0 l0 428 l125 0 Z" /><glyph glyph-name="uni0449" unicode="&#x449;" d="M871 534 l0 -534 l-787 0 l0 534 l125 0 l0 -428 l207 0 l0 428 l125 0 l0 -428 l205 0 l0 428 l125 0 ZM948 106 l0 -216 l-117 0 l0 110 l-89 0 l0 106 l206 0 Z" /><glyph glyph-name="uni044A" unicode="&#x44a;" d="M426 359 q100 0 154 -46.5 q54 -46.5 54 -129.5 q0 -87 -60 -135 q-60 -48 -168 -48 l-241 0 l0 428 l-158 0 l0 106 l283 0 l0 -175 l136 0 ZM400 92 q53 0 80 24 q27 24 27 70 q0 86 -107 86 l-110 0 l0 -180 l110 0 Z" /><glyph glyph-name="uni044B" unicode="&#x44b;" d="M344 358 q102 0 156 -46 q54 -46 54 -130 q0 -88 -59.5 -136 q-59.5 -48 -168.5 -47 l-242 1 l0 534 l125 0 l0 -175 l135 -1 ZM623 534 l125 0 l0 -534 l-125 0 l0 534 ZM315 91 q55 -1 84 23 q29 24 29 70 q0 45 -28 66 q-28 21 -85 22 l-106 1 l0 -181 l106 -1 Z" /><glyph glyph-name="uni044C" unicode="&#x44c;" d="M352 358 q102 0 156.5 -46 q54.5 -46 54.5 -130 q0 -88 -60 -136 q-60 -48 -169 -47 l-250 1 l0 534 l125 0 l0 -175 l143 -1 ZM323 91 q55 -1 84 23 q29 24 29 70 q0 45 -28 66 q-28 21 -85 22 l-114 1 l0 -181 l114 -1 Z" /><glyph glyph-name="uni044D" unicode="&#x44d;" d="M250 542 q84 0 151 -35.5 q67 -35.5 105 -98 q38 -62.5 38 -141.5 q0 -79 -38 -142 q-38 -63 -105 -98.5 q-67 -35.5 -151 -35.5 q-73 0 -132 24 q-59 24 -100 69 l72 70 q63 -63 155 -63 q68 0 116.5 36.5 q48.5 36.5 62.5 97.5 l-247 0 l0 90 l246 0 q-15 59 -63 93.5 q-48 34.5 -115 34.5 q-92 0 -155 -64 l-72 70 q40 46 99.5 69.5 q59.5 23.5 132.5 23.5 Z" /><glyph glyph-name="uni044E" unicode="&#x44e;" d="M572 540 q80 0 143 -34.5 q63 -34.5 99 -97 q36 -62.5 36 -141.5 q0 -79 -36 -141.5 q-36 -62.5 -99 -97.5 q-63 -35 -143 -35 q-70 0 -128 27.5 q-58 27.5 -96 78 q-38 50.5 -49 115.5 l-90 0 l0 -214 l-125 0 l0 534 l125 0 l0 -207 l92 0 q12 63 50 111.5 q38 48.5 95 75 q57 26.5 126 26.5 ZM572 99 q44 0 79 20.5 q35 20.5 55 59 q20 38.5 20 88.5 q0 76 -43.5 121.5 q-43.5 45.5 -110.5 45.5 q-67 0 -110 -45.5 q-43 -45.5 -43 -121.5 q0 -76 43.5 -122 q43.5 -46 109.5 -46 Z" /><glyph glyph-name="uni044F" unicode="&#x44f;" d="M535 534 l0 -534 l-112 0 l0 161 l-141 0 l-109 -161 l-134 0 l126 178 q-58 20 -88.5 61.5 q-30.5 41.5 -30.5 102.5 q0 92 65 142 q65 50 179 50 l245 0 ZM294 429 q-121 0 -121 -91 q0 -90 117 -90 l133 0 l0 181 l-129 0 Z" /><glyph glyph-name="uni0451" unicode="&#x451;" d="M584 264 q0 -13 -2 -37 l-419 0 q11 -59 57.5 -93.5 q46.5 -34.5 115.5 -34.5 q88 0 145 58 l67 -77 q-36 -43 -91 -65 q-55 -22 -124 -22 q-88 0 -155 35 q-67 35 -103.5 97.5 q-36.5 62.5 -36.5 141.5 q0 78 35.5 140.5 q35.5 62.5 98.5 97.5 q63 35 142 35 q78 0 139.5 -34.5 q61.5 -34.5 96 -97 q34.5 -62.5 34.5 -144.5 ZM314 440 q-60 0 -101.5 -35.5 q-41.5 -35.5 -50.5 -94.5 l303 0 q-8 58 -49 94 q-41 36 -102 36 ZM214 618 q-26 0 -43 17 q-17 17 -17 43 q0 27 17 44 q17 17 43 17 q26 0 43 -17 q17 -17 17 -44 q0 -26 -17 -43 q-17 -17 -43 -17 ZM408 618 q-26 0 -43 17 q-17 17 -17 43 q0 27 17 44 q17 17 43 17 q26 0 43 -17 q17 -17 17 -44 q0 -26 -17 -43 q-17 -17 -43 -17 Z" /><glyph glyph-name="endash" unicode="&#x2013;" d="M0 319 l500 0 l0 -82 l-500 0 l0 82 Z" /><glyph glyph-name="emdash" unicode="&#x2014;" d="M0 319 l1000 0 l0 -82 l-1000 0 l0 82 Z" /><glyph glyph-name="quoteleft" unicode="&#x2018;" d="M155 589 q22 -9 34.5 -28.5 q12.5 -19.5 12.5 -46.5 q0 -36 -23 -59 q-23 -23 -57 -23 q-36 0 -59 23 q-23 23 -23 59 q0 18 4.5 35 q4.5 17 17.5 51 l53 142 l80 0 l-40 -153 Z" /><glyph glyph-name="quoteright" unicode="&#x2019;" d="M123 749 q35 0 58 -23 q23 -23 23 -59 q0 -18 -4.5 -35 q-4.5 -17 -17.5 -51 l-52 -142 l-81 0 l40 154 q-22 8 -34.5 27.5 q-12.5 19.5 -12.5 46.5 q0 36 23 59 q23 23 58 23 Z" /><glyph glyph-name="quotedblleft" unicode="&#x201c;" d="M155 589 q22 -9 34.5 -28.5 q12.5 -19.5 12.5 -46.5 q0 -36 -23 -59 q-23 -23 -57 -23 q-36 0 -59 23 q-23 23 -23 59 q0 18 4.5 35 q4.5 17 17.5 51 l53 142 l80 0 l-40 -153 ZM367 589 q22 -9 34.5 -28.5 q12.5 -19.5 12.5 -46.5 q0 -36 -23 -59 q-23 -23 -57 -23 q-36 0 -59 23 q-23 23 -23 59 q0 18 4.5 35 q4.5 17 17.5 51 l53 142 l80 0 l-40 -153 Z" /><glyph glyph-name="quotedblright" unicode="&#x201d;" d="M123 749 q35 0 58 -23 q23 -23 23 -59 q0 -18 -4.5 -35 q-4.5 -17 -17.5 -51 l-52 -142 l-81 0 l40 154 q-22 8 -34.5 27.5 q-12.5 19.5 -12.5 46.5 q0 36 23 59 q23 23 58 23 ZM335 749 q35 0 58 -23 q23 -23 23 -59 q0 -18 -4.5 -35 q-4.5 -17 -17.5 -51 l-52 -142 l-81 0 l40 154 q-22 8 -34.5 27.5 q-12.5 19.5 -12.5 46.5 q0 36 23 59 q23 23 58 23 Z" /><glyph glyph-name="quotedblbase" unicode="&#x201e;" d="M123 159 q35 0 58 -23 q23 -23 23 -60 q0 -16 -4.5 -33.5 q-4.5 -17.5 -18.5 -52.5 l-51 -141 l-81 0 l40 153 q-22 9 -34.5 28.5 q-12.5 19.5 -12.5 45.5 q0 37 23 60 q23 23 58 23 ZM335 159 q35 0 58 -23 q23 -23 23 -60 q0 -16 -4.5 -33.5 q-4.5 -17.5 -18.5 -52.5 l-51 -141 l-81 0 l40 153 q-22 9 -34.5 28.5 q-12.5 19.5 -12.5 45.5 q0 37 23 60 q23 23 58 23 Z" /><glyph glyph-name="bullet" unicode="&#x2022;" d="M167 169 q-44 0 -75.5 31 q-31.5 31 -31.5 78 q0 46 31.5 77 q31.5 31 75.5 31 q44 0 76 -31 q32 -31 32 -77 q0 -47 -32 -78 q-32 -31 -76 -31 Z" /><glyph glyph-name="ellipsis" unicode="&#x2026;" d="M122 -7 q-34 0 -58 23.5 q-24 23.5 -24 59.5 q0 37 23.5 60 q23.5 23 58.5 23 q35 0 58.5 -23 q23.5 -23 23.5 -60 q0 -36 -24 -59.5 q-24 -23.5 -58 -23.5 ZM371 -7 q-34 0 -58 23.5 q-24 23.5 -24 59.5 q0 37 23.5 60 q23.5 23 58.5 23 q35 0 58.5 -23 q23.5 -23 23.5 -60 q0 -36 -24 -59.5 q-24 -23.5 -58 -23.5 ZM621 -7 q-34 0 -58 23.5 q-24 23.5 -24 59.5 q0 37 23.5 60 q23.5 23 58.5 23 q35 0 58.5 -23 q23.5 -23 23.5 -60 q0 -36 -24 -59.5 q-24 -23.5 -58 -23.5 Z" /><glyph glyph-name="uni2116" unicode="&#x2116;" d="M981 381 q-52 0 -94 21 q-42 21 -65.5 58 q-23.5 37 -23.5 84 q0 47 23.5 84 q23.5 37 65.5 58 q42 21 94 21 q53 0 94.5 -21 q41.5 -21 65 -58 q23.5 -37 23.5 -84 q0 -47 -23.5 -84 q-23.5 -37 -65 -58 q-41.5 -21 -94.5 -21 ZM587 700 l129 0 l0 -700 l-107 0 l-386 474 l0 -474 l-129 0 l0 700 l107 0 l386 -474 l0 474 ZM981 637 q-44 0 -70.5 -25.5 q-26.5 -25.5 -26.5 -67.5 q0 -41 27 -66.5 q27 -25.5 70 -25.5 q43 0 70 25.5 q27 25.5 27 66.5 q0 42 -26.5 67.5 q-26.5 25.5 -70.5 25.5 ZM818 308 l327 0 l0 -80 l-327 0 l0 80 Z" /><glyph glyph-name="trademark" unicode="&#x2122;" d="M4 700 l384 0 l0 -73 l-146 0 l0 -342 l-92 0 l0 342 l-146 0 l0 73 ZM856 285 l-1 262 l-140 -216 l-42 0 l-141 211 l0 -257 l-87 0 l0 415 l74 0 l176 -266 l173 266 l74 0 l1 -415 l-87 0 Z" /></font>
</defs>
</svg>
